<?xml version="1.0" standalone="no"?>
<!DOCTYPE svg PUBLIC "-//W3C//DTD SVG 1.1//EN" "http://www.w3.org/Graphics/SVG/1.1/DTD/svg11.dtd" >
<svg xmlns="http://www.w3.org/2000/svg">
<defs>
  <font id="Eva-Icons" horiz-adv-x="600">
    <font-face font-family="Eva-Icons"
      units-per-em="600" ascent="600"
      descent="0" />
    <missing-glyph horiz-adv-x="0" />
    <glyph glyph-name="activity"
      unicode="&#xEA01;"
      horiz-adv-x="600" d="M358.25 100H353A50 50 0 0 0 309 139.5L242 450L173 290A25 25 0 0 0 150 275H75A25 25 0 0 0 75 325H133.5L196.25 469.75A50 50 0 0 0 291 460.25L358 150L427 309.5A25 25 0 0 0 450 325H525A25 25 0 0 0 525 275H466.5L403.75 130.25A50 50 0 0 0 358.25 100z" />
    <glyph glyph-name="activity-outline"
      unicode="&#xEA02;"
      horiz-adv-x="600" d="M358.25 100H353A50 50 0 0 0 309 139.5L242 450L173 290A25 25 0 0 0 150 275H75A25 25 0 0 0 75 325H133.5L196.25 469.75A50 50 0 0 0 291 460.25L358 150L427 309.5A25 25 0 0 0 450 325H525A25 25 0 0 0 525 275H466.5L403.75 130.25A50 50 0 0 0 358.25 100z" />
    <glyph glyph-name="alert-circle"
      unicode="&#xEA03;"
      horiz-adv-x="600" d="M300 550A250 250 0 1 1 550 300A250 250 0 0 1 300 550zM300 175A25 25 0 1 0 325 200A25 25 0 0 0 300 175zM325 275A25 25 0 0 0 275 275V400A25 25 0 0 0 325 400z" />
    <glyph glyph-name="alert-circle-outline"
      unicode="&#xEA04;"
      horiz-adv-x="600" d="M300 550A250 250 0 1 1 550 300A250 250 0 0 1 300 550zM300 100A200 200 0 1 0 500 300A200 200 0 0 0 300 100zM275 200A25 25 0 0 1 325 200A25 25 0 0 1 275 200M300 425A25 25 0 0 1 275 400V275A25 25 0 0 1 325 275V400A25 25 0 0 1 300 425z" />
    <glyph glyph-name="alert-triangle"
      unicode="&#xEA05;"
      horiz-adv-x="600" d="M564 192.5L372.25 510.5A85.75 85.75 0 0 1 227.75 510.5L36 192.5A75 75 0 0 1 34.75 117.5A84.25000000000001 84.25000000000001 0 0 1 108.25 75H491.7500000000001A84.25000000000001 84.25000000000001 0 0 1 565.2500000000001 116.5A75 75 0 0 1 564 192.5zM300 175A25 25 0 1 0 325 200A25 25 0 0 0 300 175zM325 275A25 25 0 0 0 275 275V375A25 25 0 0 0 325 375z" />
    <glyph glyph-name="alert-triangle-outline"
      unicode="&#xEA06;"
      horiz-adv-x="600" d="M564 192.5L372.25 510.5A85.75 85.75 0 0 1 227.75 510.5L36 192.5A75 75 0 0 1 34.75 117.5A84.25000000000001 84.25000000000001 0 0 1 108.25 75H491.7500000000001A84.25000000000001 84.25000000000001 0 0 1 565.2500000000001 116.5A75 75 0 0 1 564 192.5zM521.5 141.25A32.75 32.75 0 0 0 491.7499999999999 125H108.25A32.75 32.75 0 0 0 78.5 141.25A25 25 0 0 0 78.5 166.25L270.5 484.5A37 37 0 0 0 329.5 484.5L521.25 166.4999999999999A25 25 0 0 0 521.5000000000001 141.2499999999999zM275 200A25 25 0 0 1 325 200A25 25 0 0 1 275 200M300 400A25 25 0 0 1 275 375V275A25 25 0 0 1 325 275V375A25 25 0 0 1 300 400z" />
    <glyph glyph-name="archive"
      unicode="&#xEA07;"
      horiz-adv-x="600" d="M450 525H150A75 75 0 0 1 100 394.5V150A75 75 0 0 1 175 75H425A75 75 0 0 1 500 150V394.5A75 75 0 0 1 450 525zM375 271.75A21.75 21.75 0 0 0 353.25 250H246.75A21.75 21.75 0 0 0 225 271.75V278.25A21.75 21.75 0 0 0 246.75 300H353.25A21.75 21.75 0 0 0 375 278.25zM450 425H150A25 25 0 0 0 150 475H450A25 25 0 0 0 450 425z" />
    <glyph glyph-name="archive-outline"
      unicode="&#xEA08;"
      horiz-adv-x="600" d="M525 450A75 75 0 0 1 450 525H150A75 75 0 0 1 100 394.5V150A75 75 0 0 1 175 75H425A75 75 0 0 1 500 150V394.5A75 75 0 0 1 525 450zM150 475H450A25 25 0 0 0 450 425H150A25 25 0 0 0 150 475zM450 150A25 25 0 0 0 425 125H175A25 25 0 0 0 150 150V375H450zM246.75 300H353.25A21.75 21.75 0 0 0 375 278.25V271.75A21.75 21.75 0 0 0 353.25 250.0000000000001H246.75A21.75 21.75 0 0 0 225 271.75V278.25A21.75 21.75 0 0 0 246.75 300z" />
    <glyph glyph-name="arrow-back"
      unicode="&#xEA09;"
      horiz-adv-x="600" d="M475 325H178.5L269.25 434A25 25 0 1 1 230.75 466L105.75 316A29.75 29.75 0 0 1 103.5 312.25C103.5 311 103.5 310.25 101.75 309A25 25 0 0 1 100 300A25 25 0 0 1 101.75 291C101.75 289.75 101.75 289 103.5 287.75A29.75 29.75 0 0 1 105.75 284L230.75 134A25 25 0 0 1 250 125A25 25 0 0 1 266 130.75A25 25 0 0 1 269.2500000000001 166L178.5 275H475A25 25 0 0 1 475 325z" />
    <glyph glyph-name="arrow-back-outline"
      unicode="&#xEA0A;"
      horiz-adv-x="600" d="M475 325H178.5L269.25 434A25 25 0 1 1 230.75 466L105.75 316A29.75 29.75 0 0 1 103.5 312.25C103.5 311 103.5 310.25 101.75 309A25 25 0 0 1 100 300A25 25 0 0 1 101.75 291C101.75 289.75 101.75 289 103.5 287.75A29.75 29.75 0 0 1 105.75 284L230.75 134A25 25 0 0 1 250 125A25 25 0 0 1 266 130.75A25 25 0 0 1 269.2500000000001 166L178.5 275H475A25 25 0 0 1 475 325z" />
    <glyph glyph-name="arrow-circle-down"
      unicode="&#xEA0B;"
      horiz-adv-x="600" d="M300 550A250 250 0 1 1 550 300A250 250 0 0 1 300 550zM392.25 253.5L317.25 182A12.25 12.25 0 0 0 313.5 179.5A13.5 13.5 0 0 0 309.5 177A23.499999999999996 23.499999999999996 0 0 0 290.5 177A25 25 0 0 0 282.25 182.25L207.25 257.25A25 25 0 0 0 242.75 292.75L275 260.25V400A25 25 0 0 0 325 400V258.5L357.75 289.75A25 25 0 0 0 392.2500000000001 253.5z" />
    <glyph glyph-name="arrow-circle-down-outline"
      unicode="&#xEA0C;"
      horiz-adv-x="600" d="M357.75 289.75L325 258.5V400A25 25 0 0 1 275 400V260.25L242.7500000000001 292.75A25 25 0 0 1 207.25 257.25L282.25 182.25A25 25 0 0 1 290.5 177A23.499999999999996 23.499999999999996 0 0 1 309.5 177A13.5 13.5 0 0 1 313.5 179.5A12.25 12.25 0 0 1 317.2500000000001 182L392.2500000000001 253.5A25 25 0 0 1 357.7500000000001 289.75zM300 550A250 250 0 1 1 550 300A250 250 0 0 1 300 550zM300 100A200 200 0 1 0 500 300A200 200 0 0 0 300 100z" />
    <glyph glyph-name="arrow-circle-left"
      unicode="&#xEA0D;"
      horiz-adv-x="600" d="M550 300A250 250 0 1 1 300 50A250 250 0 0 1 550 300zM253.5 207.75L182 282.75A12.25 12.25 0 0 0 179.5 286.5A13.5 13.5 0 0 0 177.0000000000001 290.5A23.499999999999996 23.499999999999996 0 0 0 177.0000000000001 309.5A25 25 0 0 0 182.2500000000001 317.75L257.2500000000001 392.75A25 25 0 0 0 292.7500000000001 357.25L260.25 325H400A25 25 0 0 0 400 275H258.5L289.75 242.25A25 25 0 0 0 253.5 207.75z" />
    <glyph glyph-name="arrow-circle-left-outline"
      unicode="&#xEA0E;"
      horiz-adv-x="600" d="M400 325H258.5L289.75 357.75A25 25 0 0 1 253.5 392.25L182 317.2500000000001A25 25 0 0 1 179.75 314A18 18 0 0 1 177 309.25A22 22 0 0 1 175.5 302.2500000000001L175 300A25 25 0 0 1 177 290.5A25 25 0 0 1 182.25 282.5L257.25 207.5A25 25 0 0 1 292.75 207.5A25 25 0 0 1 292.75 243L260.25 275H400A25 25 0 0 1 400 325zM300 550A250 250 0 1 1 550 300A250 250 0 0 1 300 550zM300 100A200 200 0 1 0 500 300A200 200 0 0 0 300 100z" />
    <glyph glyph-name="arrow-circle-right"
      unicode="&#xEA0F;"
      horiz-adv-x="600" d="M50 300A250 250 0 1 1 300 550A250 250 0 0 1 50 300zM346.5 392.25L418 317.25A12.25 12.25 0 0 0 420.5 313.5A13.5 13.5 0 0 0 423.0000000000001 309.5A23.499999999999996 23.499999999999996 0 0 0 423.0000000000001 290.5A25 25 0 0 0 417.75 282.25L342.75 207.25A25 25 0 0 0 307.25 242.75L339.7500000000001 275H200A25 25 0 0 0 200 325H341.5L310.25 357.75A25 25 0 0 0 346.5 392.25z" />
    <glyph glyph-name="arrow-circle-right-outline"
      unicode="&#xEA10;"
      horiz-adv-x="600" d="M425 300V302.25A22 22 0 0 1 423.5000000000001 309.25A18 18 0 0 1 420.7500000000001 314A25 25 0 0 1 418.5000000000001 317.25L347.0000000000001 392.25A25 25 0 0 1 310.7500000000001 357.75L341.5 325H200A25 25 0 0 1 200 275H339.75L307.25 242.75A25 25 0 0 1 307.25 207.25A25 25 0 0 1 342.75 207.25L417.75 282.25A25 25 0 0 1 423.0000000000001 290.2500000000001A25 25 0 0 1 425 300zM300 550A250 250 0 1 1 550 300A250 250 0 0 1 300 550zM300 100A200 200 0 1 0 500 300A200 200 0 0 0 300 100z" />
    <glyph glyph-name="arrow-circle-up"
      unicode="&#xEA11;"
      horiz-adv-x="600" d="M300 50A250 250 0 1 1 50 300A250 250 0 0 1 300 50zM207.75 346.5L282.75 418A12.25 12.25 0 0 0 286.5 420.5A13.5 13.5 0 0 0 290.5 423A23.499999999999996 23.499999999999996 0 0 0 309.5 423A25 25 0 0 0 317.75 417.75L392.75 342.75A25 25 0 0 0 357.25 307.25L325 339.75V200A25 25 0 0 0 275 200V341.5L242.25 310.25A25 25 0 0 0 207.75 346.5z" />
    <glyph glyph-name="arrow-circle-up-outline"
      unicode="&#xEA12;"
      horiz-adv-x="600" d="M317.75 417.75A25 25 0 0 1 309.75 423A25 25 0 0 1 300 425H297.5A20.499999999999996 20.499999999999996 0 0 1 290.75 423.5A18 18 0 0 1 286.0000000000001 420.75A25 25 0 0 1 282.75 418.5L207.75 347A25 25 0 0 1 242.2500000000001 310.7500000000001L275 341.5V200A25 25 0 0 1 325 200V339.75L357.25 307.25A25 25 0 0 1 392.75 307.25A25 25 0 0 1 392.75 342.75zM300 550A250 250 0 1 1 550 300A250 250 0 0 1 300 550zM300 100A200 200 0 1 0 500 300A200 200 0 0 0 300 100z" />
    <glyph glyph-name="arrow-down"
      unicode="&#xEA13;"
      horiz-adv-x="600" d="M300 175A43 43 0 0 0 266.75 191L161.5 318.5A52.5 52.5 0 0 0 155 373.75A44 44 0 0 0 194.75 400H405.25A44 44 0 0 0 445 373.75A52.5 52.5 0 0 0 438.5 318.5L333.25 191A43 43 0 0 0 300 175z" />
    <glyph glyph-name="arrow-down-outline"
      unicode="&#xEA14;"
      horiz-adv-x="600" d="M300 175A43 43 0 0 0 266.75 191L161.5 318.5A52.5 52.5 0 0 0 155 373.75A44 44 0 0 0 194.75 400H405.25A44 44 0 0 0 445 373.75A52.5 52.5 0 0 0 438.5 318.5L333.25 191A43 43 0 0 0 300 175zM202.25 350L300 229.5L400 350z" />
    <glyph glyph-name="arrow-downward"
      unicode="&#xEA15;"
      horiz-adv-x="600" d="M469.25 266A25 25 0 0 1 434 269.2500000000001L325 178.5V475A25 25 0 0 1 275 475V178.5L166 269.25A25 25 0 1 1 134 230.75L284 105.75L287.75 103.5L291 101.75A25 25 0 0 1 309.0000000000001 101.75L312.2500000000001 103.5L316.0000000000001 105.75L466 230.75A25 25 0 0 1 469.25 266z" />
    <glyph glyph-name="arrow-downward-outline"
      unicode="&#xEA16;"
      horiz-adv-x="600" d="M469.25 266A25 25 0 0 1 434 269.2500000000001L325 178.5V475A25 25 0 0 1 275 475V178.5L166 269.25A25 25 0 1 1 134 230.75L284 105.75L287.75 103.5L291 101.75A25 25 0 0 1 309.0000000000001 101.75L312.2500000000001 103.5L316.0000000000001 105.75L466 230.75A25 25 0 0 1 469.25 266z" />
    <glyph glyph-name="arrow-forward"
      unicode="&#xEA17;"
      horiz-adv-x="600" d="M125 275H421.5L330.75 166A25 25 0 0 1 369.25 134L494.25 284A29.75 29.75 0 0 1 496.5 287.75C496.5 289 497.75 289.75 498.25 291A25 25 0 0 1 500 300A25 25 0 0 1 498.25 309C498.25 310.25 497 311 496.5 312.25A29.75 29.75 0 0 1 494.25 316L369.25 466A25 25 0 0 1 350 475A25 25 0 0 1 334 469.25A25 25 0 0 1 330.75 434L421.5 325H125A25 25 0 0 1 125 275z" />
    <glyph glyph-name="arrow-forward-outline"
      unicode="&#xEA18;"
      horiz-adv-x="600" d="M125 275H421.5L330.75 166A25 25 0 0 1 369.25 134L494.25 284A29.75 29.75 0 0 1 496.5 287.75C496.5 289 497.75 289.75 498.25 291A25 25 0 0 1 500 300A25 25 0 0 1 498.25 309C498.25 310.25 497 311 496.5 312.25A29.75 29.75 0 0 1 494.25 316L369.25 466A25 25 0 0 1 350 475A25 25 0 0 1 334 469.25A25 25 0 0 1 330.75 434L421.5 325H125A25 25 0 0 1 125 275z" />
    <glyph glyph-name="arrow-ios-back"
      unicode="&#xEA19;"
      horiz-adv-x="600" d="M345.75 125A25 25 0 0 0 326.25 134.25L205.5 284.25A25 25 0 0 0 205.5 316L330.5 466A25 25 0 0 0 369.0000000000001 434L257.25 300L365.25 166A25 25 0 0 0 345.75 125z" />
    <glyph glyph-name="arrow-ios-back-outline"
      unicode="&#xEA1A;"
      horiz-adv-x="600" d="M345.75 125A25 25 0 0 0 326.25 134.25L205.5 284.25A25 25 0 0 0 205.5 316L330.5 466A25 25 0 0 0 369.0000000000001 434L257.25 300L365.25 166A25 25 0 0 0 345.75 125z" />
    <glyph glyph-name="arrow-ios-downward"
      unicode="&#xEA1B;"
      horiz-adv-x="600" d="M300 200A25 25 0 0 0 284 205.75L134 330.75A25 25 0 1 0 166 369.25L300 257.25L434 365.25A25 25 0 0 0 469.25 361.5A25 25 0 0 0 465.75 325L315.75 204.25A25 25 0 0 0 300 200z" />
    <glyph glyph-name="arrow-ios-downward-outline"
      unicode="&#xEA1C;"
      horiz-adv-x="600" d="M300 200A25 25 0 0 0 284 205.75L134 330.75A25 25 0 1 0 166 369.25L300 257.25L434 365.25A25 25 0 0 0 469.25 361.5A25 25 0 0 0 465.75 325L315.75 204.25A25 25 0 0 0 300 200z" />
    <glyph glyph-name="arrow-ios-forward"
      unicode="&#xEA1D;"
      horiz-adv-x="600" d="M250 125A25 25 0 0 0 234 130.75A25 25 0 0 0 230.75 166L342.75 300L234.75 434.25A25 25 0 0 0 238.5000000000001 469.5A25 25 0 0 0 275 465.75L395.75 315.75A25 25 0 0 0 395.75 284L270.75 134A25 25 0 0 0 250 125z" />
    <glyph glyph-name="arrow-ios-forward-outline"
      unicode="&#xEA1E;"
      horiz-adv-x="600" d="M250 125A25 25 0 0 0 234 130.75A25 25 0 0 0 230.75 166L342.75 300L234.75 434.25A25 25 0 0 0 238.5000000000001 469.5A25 25 0 0 0 275 465.75L395.75 315.75A25 25 0 0 0 395.75 284L270.75 134A25 25 0 0 0 250 125z" />
    <glyph glyph-name="arrow-ios-upward"
      unicode="&#xEA1F;"
      horiz-adv-x="600" d="M450 225A25 25 0 0 0 434 230.75L300 342.75L165.75 234.75A25 25 0 0 0 130.5 238.5A25 25 0 0 0 134.25 273.75L284.25 394.5A25 25 0 0 0 316 394.5L466 269.5A25 25 0 0 0 469.25 234.25A25 25 0 0 0 450 225z" />
    <glyph glyph-name="arrow-ios-upward-outline"
      unicode="&#xEA20;"
      horiz-adv-x="600" d="M450 225A25 25 0 0 0 434 230.75L300 342.75L165.75 234.75A25 25 0 0 0 130.5 238.5A25 25 0 0 0 134.25 273.75L284.25 394.5A25 25 0 0 0 316 394.5L466 269.5A25 25 0 0 0 469.25 234.25A25 25 0 0 0 450 225z" />
    <glyph glyph-name="arrow-left"
      unicode="&#xEA21;"
      horiz-adv-x="600" d="M338.5 150A51.50000000000001 51.50000000000001 0 0 0 306 161.5L178.5 266.7500000000001A42.5 42.5 0 0 0 178.5 333.2500000000001L306 438.5000000000001A52.5 52.5 0 0 0 361.25 445A44 44 0 0 0 387.5 405.2500000000001V194.7500000000001A44 44 0 0 0 361.25 155.0000000000001A55.75 55.75 0 0 0 338.5 150.0000000000001z" />
    <glyph glyph-name="arrow-left-outline"
      unicode="&#xEA22;"
      horiz-adv-x="600" d="M338.5 150A51.50000000000001 51.50000000000001 0 0 0 306 161.5L178.5 266.7500000000001A42.5 42.5 0 0 0 178.5 333.2500000000001L306 438.5000000000001A52.5 52.5 0 0 0 361.25 445A44 44 0 0 0 387.5 405.2500000000001V194.7500000000001A44 44 0 0 0 361.25 155.0000000000001A55.75 55.75 0 0 0 338.5 150.0000000000001zM217 300L337.5 200V397.75z" />
    <glyph glyph-name="arrow-right"
      unicode="&#xEA23;"
      horiz-adv-x="600" d="M261.5 150A55.75 55.75 0 0 0 238.7500000000001 155A44 44 0 0 0 212.5 194.75V405.25A44 44 0 0 0 238.7500000000001 445A52.5 52.5 0 0 0 294.0000000000001 438.5L421.5 333.25A42.5 42.5 0 0 0 421.5 266.75L294 161.5A51.50000000000001 51.50000000000001 0 0 0 261.5 150z" />
    <glyph glyph-name="arrow-right-outline"
      unicode="&#xEA24;"
      horiz-adv-x="600" d="M261.5 150A55.75 55.75 0 0 0 238.7500000000001 155A44 44 0 0 0 212.5 194.75V405.25A44 44 0 0 0 238.7500000000001 445A52.5 52.5 0 0 0 294.0000000000001 438.5L421.5 333.25A42.5 42.5 0 0 0 421.5 266.75L294 161.5A51.50000000000001 51.50000000000001 0 0 0 261.5 150zM261.5 400V202.5L383 300z" />
    <glyph glyph-name="arrow-up"
      unicode="&#xEA25;"
      horiz-adv-x="600" d="M405.25 200H194.75A44 44 0 0 0 155 225A52.5 52.5 0 0 0 161.5 280.25L266.75 407.75A44 44 0 0 0 333.25 407.75L438.5 280.25A52.5 52.5 0 0 0 445 225A44 44 0 0 0 405.25 200z" />
    <glyph glyph-name="arrow-up-outline"
      unicode="&#xEA26;"
      horiz-adv-x="600" d="M405.25 200H194.75A44 44 0 0 0 155 225A52.5 52.5 0 0 0 161.5 280.25L266.75 407.75A44 44 0 0 0 333.25 407.75L438.5 280.25A52.5 52.5 0 0 0 445 225A44 44 0 0 0 405.25 200zM200 250H397.5L300 370.5z" />
    <glyph glyph-name="arrow-upward"
      unicode="&#xEA27;"
      horiz-adv-x="600" d="M130.75 334A25 25 0 0 1 166 330.75L275 421.5V125A25 25 0 0 1 325 125V421.5L434 330.75A25 25 0 1 1 466 369.25L316 494.25L312.25 496.5L309 498.25A25 25 0 0 1 291 498.25L287.75 496.5L284 494.25L134 369.25A25 25 0 0 1 130.75 334z" />
    <glyph glyph-name="arrow-upward-outline"
      unicode="&#xEA28;"
      horiz-adv-x="600" d="M130.75 334A25 25 0 0 1 166 330.75L275 421.5V125A25 25 0 0 1 325 125V421.5L434 330.75A25 25 0 1 1 466 369.25L316 494.25L312.25 496.5L309 498.25A25 25 0 0 1 291 498.25L287.75 496.5L284 494.25L134 369.25A25 25 0 0 1 130.75 334z" />
    <glyph glyph-name="arrowhead-down"
      unicode="&#xEA29;"
      horiz-adv-x="600" d="M434.25 290.25L300 182.25L166 294.25A25 25 0 1 1 134 255.75L284 130.75A25 25 0 0 1 315.75 130.75L465.75 251.5A25 25 0 0 1 469.4999999999999 286.75A25 25 0 0 1 434.25 290.2500000000001zM284 305.75A25 25 0 0 1 315.75 305.75L465.75 426.5A25 25 0 0 1 469.4999999999999 461.75A25 25 0 0 1 434.25 465.5L300 357.25L166 469.25A25 25 0 0 1 134 430.75z" />
    <glyph glyph-name="arrowhead-down-outline"
      unicode="&#xEA2A;"
      horiz-adv-x="600" d="M434.25 290.25L300 182.25L166 294.25A25 25 0 1 1 134 255.75L284 130.75A25 25 0 0 1 315.75 130.75L465.75 251.5A25 25 0 0 1 469.4999999999999 286.75A25 25 0 0 1 434.25 290.2500000000001zM284 305.75A25 25 0 0 1 315.75 305.75L465.75 426.5A25 25 0 0 1 469.4999999999999 461.75A25 25 0 0 1 434.25 465.5L300 357.25L166 469.25A25 25 0 0 1 134 430.75z" />
    <glyph glyph-name="arrowhead-left"
      unicode="&#xEA2B;"
      horiz-adv-x="600" d="M291 469.25A25 25 0 0 1 255.75 466L130.75 316A25 25 0 0 1 130.75 284.25L251.5 134.25A25 25 0 0 1 271 125A25 25 0 0 1 290.5 165.75L182.25 300L294.25 434.25A25 25 0 0 1 291 469.25zM357.25 300L469.25 434.25A25 25 0 0 1 430.75 466.25L305.75 316.25A25 25 0 0 1 305.75 284.5L426.5000000000001 134.5000000000001A25 25 0 0 1 446.0000000000001 125.2500000000001A25 25 0 0 1 465.5000000000001 166z" />
    <glyph glyph-name="arrowhead-left-outline"
      unicode="&#xEA2C;"
      horiz-adv-x="600" d="M291 469.25A25 25 0 0 1 255.75 466L130.75 316A25 25 0 0 1 130.75 284.25L251.5 134.25A25 25 0 0 1 271 125A25 25 0 0 1 290.5 165.75L182.25 300L294.25 434.25A25 25 0 0 1 291 469.25zM357.25 300L469.25 434.25A25 25 0 0 1 430.75 466.25L305.75 316.25A25 25 0 0 1 305.75 284.5L426.5000000000001 134.5000000000001A25 25 0 0 1 446.0000000000001 125.2500000000001A25 25 0 0 1 465.5000000000001 166z" />
    <glyph glyph-name="arrowhead-right"
      unicode="&#xEA2D;"
      horiz-adv-x="600" d="M469.5 315.75L350 465.75A25 25 0 0 1 314.75 469.5A25 25 0 0 1 311 434.25L417.75 300L305.75 165.75A25 25 0 0 1 309.0000000000001 130.5A25 25 0 0 1 325 125A25 25 0 0 1 344.25 134L469.25 284A25 25 0 0 1 469.5 315.75zM175 465.75A25 25 0 0 1 134.75 434.25L242.7500000000001 300L130.75 166A25 25 0 0 1 134 130.75A25 25 0 0 1 150 125A25 25 0 0 1 169.25 134L294.25 284A25 25 0 0 1 294.25 315.75z" />
    <glyph glyph-name="arrowhead-right-outline"
      unicode="&#xEA2E;"
      horiz-adv-x="600" d="M469.5 315.75L350 465.75A25 25 0 0 1 314.75 469.5A25 25 0 0 1 311 434.25L417.75 300L305.75 165.75A25 25 0 0 1 309.0000000000001 130.5A25 25 0 0 1 325 125A25 25 0 0 1 344.25 134L469.25 284A25 25 0 0 1 469.5 315.75zM175 465.75A25 25 0 0 1 134.75 434.25L242.7500000000001 300L130.75 166A25 25 0 0 1 134 130.75A25 25 0 0 1 150 125A25 25 0 0 1 169.25 134L294.25 284A25 25 0 0 1 294.25 315.75z" />
    <glyph glyph-name="arrowhead-up"
      unicode="&#xEA2F;"
      horiz-adv-x="600" d="M165.75 309.75L300 417.75L434.25 305.75A25 25 0 0 1 450 300A25 25 0 0 1 469.25 309A25 25 0 0 1 466 344.25L316 469.25A25 25 0 0 1 284.25 469.25L134.25 348.5A25 25 0 0 1 130.5 313.25A25 25 0 0 1 165.75 309.75zM316 294.25A25 25 0 0 1 284.25 294.25L134.25 173.5A25 25 0 0 1 130.5 138.25A25 25 0 0 1 165.75 134.5L300 242.75L434.25 130.75A25 25 0 0 1 450 125A25 25 0 0 1 469.25 134A25 25 0 0 1 466 169.25z" />
    <glyph glyph-name="arrowhead-up-outline"
      unicode="&#xEA30;"
      horiz-adv-x="600" d="M165.75 309.75L300 417.75L434.25 305.75A25 25 0 0 1 450 300A25 25 0 0 1 469.25 309A25 25 0 0 1 466 344.25L316 469.25A25 25 0 0 1 284.25 469.25L134.25 348.5A25 25 0 0 1 130.5 313.25A25 25 0 0 1 165.75 309.75zM316 294.25A25 25 0 0 1 284.25 294.25L134.25 173.5A25 25 0 0 1 130.5 138.25A25 25 0 0 1 165.75 134.5L300 242.75L434.25 130.75A25 25 0 0 1 450 125A25 25 0 0 1 469.25 134A25 25 0 0 1 466 169.25z" />
    <glyph glyph-name="at"
      unicode="&#xEA31;"
      horiz-adv-x="600" d="M325 550A250 250 0 0 1 200 72.5A253.75000000000003 253.75000000000003 0 0 1 300 50A250 250 0 0 1 451.9999999999999 101.4999999999999A25 25 0 0 1 456.75 136.5A25 25 0 0 1 421.5 141.25A200 200 0 1 0 319.25 500A204.25 204.25 0 0 0 500 294.5V277.5A42.74999999999999 42.74999999999999 0 0 0 455.5 235A45.5 45.5 0 0 0 415 282V390A25 25 0 0 1 390 415A25 25 0 0 1 365 393.25A125 125 0 0 1 279 427.25A127.24999999999999 127.24999999999999 0 1 1 382.75 225A90.00000000000001 90.00000000000001 0 0 1 521.5 209.75A91.75 91.75 0 0 1 550 277.5V294.5A254.99999999999997 254.99999999999997 0 0 1 325 550zM279.5 222.75A77.25 77.25 0 1 0 356.75 300A77.5 77.5 0 0 0 279.5 222.75z" />
    <glyph glyph-name="at-outline"
      unicode="&#xEA32;"
      horiz-adv-x="600" d="M325 550A250 250 0 0 1 200 72.5A253.75000000000003 253.75000000000003 0 0 1 300 50A250 250 0 0 1 451.9999999999999 101.4999999999999A25 25 0 0 1 456.75 136.5A25 25 0 0 1 421.5 141.25A200 200 0 1 0 319.25 500A204.25 204.25 0 0 0 500 294.5V277.5A42.74999999999999 42.74999999999999 0 0 0 455.5 235A45.5 45.5 0 0 0 415 282V390A25 25 0 0 1 390 415A25 25 0 0 1 365 393.25A125 125 0 0 1 279 427.25A127.24999999999999 127.24999999999999 0 1 1 382.75 225A90.00000000000001 90.00000000000001 0 0 1 521.5 209.75A91.75 91.75 0 0 1 550 277.5V294.5A254.99999999999997 254.99999999999997 0 0 1 325 550zM279.5 222.75A77.25 77.25 0 1 0 356.75 300A77.5 77.5 0 0 0 279.5 222.75z" />
    <glyph glyph-name="attach"
      unicode="&#xEA33;"
      horiz-adv-x="600" d="M232.25 75A155.75 155.75 0 0 0 121.5 122A150 150 0 0 0 116 334.25L300 520A102.75000000000001 102.75000000000001 0 0 0 375 550A112.00000000000001 112.00000000000001 0 0 0 454.7500000000001 516.25A109 109 0 0 0 458.5 363L273.5 177.25A63.5 63.5 0 0 0 228.25 158.5A68.00000000000001 68.00000000000001 0 0 0 179.5 179A67 67 0 0 0 177.5 273.25L348.25 444.75A25 25 0 0 0 382.5 409.5L211.75 238A17.000000000000004 17.000000000000004 0 0 1 213.75 214.25A19.5 19.5 0 0 1 227 208.5A14.000000000000002 14.000000000000002 0 0 1 237 212.5L421.75 398.25A59.00000000000001 59.00000000000001 0 0 1 418.0000000000001 481A59.5 59.5 0 0 1 336.2500000000001 484.75L151.5 300A100 100 0 0 1 157 158.25A105.5 105.5 0 0 1 232 126A91.75 91.75 0 0 1 297.25 152.5L481.9999999999999 338.25A25 25 0 1 0 517.4999999999999 303L332.7499999999999 117.25A141.25 141.25 0 0 0 232.25 75z" />
    <glyph glyph-name="attach-2"
      unicode="&#xEA34;"
      horiz-adv-x="600" d="M300 50A146.5 146.5 0 0 0 150 192.5V446.75A106 106 0 0 0 258.25 550A106 106 0 0 0 366.75 446.75V192.2500000000001A66.75 66.75 0 0 0 233.5 192.2500000000001V427A25 25 0 0 0 258.5 452A25 25 0 0 0 283.5 427V192.25A16.75 16.75 0 0 1 316.75 192.25V446.75A56.25 56.25 0 0 1 258.25 500A56.25 56.25 0 0 1 200 446.75V192.5A96.5 96.5 0 0 1 300 100A96.5 96.5 0 0 1 400 192.5V446.75A25 25 0 1 0 450 446.75V192.5A146.5 146.5 0 0 0 300 50z" />
    <glyph glyph-name="attach-2-outline"
      unicode="&#xEA35;"
      horiz-adv-x="600" d="M300 50A146.5 146.5 0 0 0 150 192.5V446.75A106 106 0 0 0 258.25 550A106 106 0 0 0 366.75 446.75V192.2500000000001A66.75 66.75 0 0 0 233.5 192.2500000000001V427A25 25 0 0 0 258.5 452A25 25 0 0 0 283.5 427V192.25A16.75 16.75 0 0 1 316.75 192.25V446.75A56.25 56.25 0 0 1 258.25 500A56.25 56.25 0 0 1 200 446.75V192.5A96.5 96.5 0 0 1 300 100A96.5 96.5 0 0 1 400 192.5V446.75A25 25 0 1 0 450 446.75V192.5A146.5 146.5 0 0 0 300 50z" />
    <glyph glyph-name="attach-outline"
      unicode="&#xEA36;"
      horiz-adv-x="600" d="M232.25 75A155.75 155.75 0 0 0 121.5 122A150 150 0 0 0 116 334.25L300 520A102.75000000000001 102.75000000000001 0 0 0 375 550A112.00000000000001 112.00000000000001 0 0 0 454.7500000000001 516.25A109 109 0 0 0 458.5 363L273.5 177.25A63.5 63.5 0 0 0 228.25 158.5A68.00000000000001 68.00000000000001 0 0 0 179.5 179A67 67 0 0 0 177.5 273.25L348.25 444.75A25 25 0 0 0 382.5 409.5L211.75 238A17.000000000000004 17.000000000000004 0 0 1 213.75 214.25A19.5 19.5 0 0 1 227 208.5A14.000000000000002 14.000000000000002 0 0 1 237 212.5L421.75 398.25A59.00000000000001 59.00000000000001 0 0 1 418.0000000000001 481A59.5 59.5 0 0 1 336.2500000000001 484.75L151.5 300A100 100 0 0 1 157 158.25A105.5 105.5 0 0 1 232 126A91.75 91.75 0 0 1 297.25 152.5L481.9999999999999 338.25A25 25 0 1 0 517.4999999999999 303L332.7499999999999 117.25A141.25 141.25 0 0 0 232.25 75z" />
    <glyph glyph-name="award"
      unicode="&#xEA37;"
      horiz-adv-x="600" d="M475 81.25L417.2500000000001 306.25A148.5 148.5 0 0 1 450 400A150 150 0 0 1 150 400A148.5 148.5 0 0 1 183.5 305.75L125 81.25A25 25 0 0 1 162 53.5L295.25 131.75L437.2500000000001 53.25A22.75 22.75 0 0 1 450 50A25 25 0 0 1 475 81.25zM300 500A100 100 0 1 0 200 400A100 100 0 0 0 300 500z" />
    <glyph glyph-name="award-outline"
      unicode="&#xEA38;"
      horiz-adv-x="600" d="M475 81.25L417.2500000000001 306.25A148.5 148.5 0 0 1 450 400A150 150 0 0 1 150 400A148.5 148.5 0 0 1 183.5 305.75L125 81.25A25 25 0 0 1 162 53.5L295.25 131.75L437.2500000000001 53.25A22.75 22.75 0 0 1 450 50A25 25 0 0 1 475 81.25zM300 500A100 100 0 1 0 200 400A100 100 0 0 0 300 500zM307.75 182.25A25 25 0 0 1 282.75 182.25L189 127.25L225 269.75A148.5 148.5 0 0 1 373 269.75L411.25 125z" />
    <glyph glyph-name="backspace"
      unicode="&#xEA39;"
      horiz-adv-x="600" d="M503.5 500H259.25A75 75 0 0 1 209.25 480.5L206.75 477.75L56.75 290.75A25 25 0 0 1 59.5 256.5L209.5 119.5A75 75 0 0 1 259.5 99.9999999999999H503.7499999999999A46 46 0 0 1 550 145.5V454.5A46 46 0 0 1 503.5 500zM417.75 267.75A25 25 0 0 0 417.75 232.25A25 25 0 0 0 382.25 232.25L350 264.75L317.75 232.25A25 25 0 0 0 282.25 232.25A25 25 0 0 0 282.25 267.75L314.7500000000001 300L282.25 332.25A25 25 0 0 0 317.75 367.75L350 335.25L382.25 367.75A25 25 0 0 0 417.75 332.25L385.25 300z" />
    <glyph glyph-name="backspace-outline"
      unicode="&#xEA3A;"
      horiz-adv-x="600" d="M503.5 500H259.25A75 75 0 0 1 209.25 480.5L206.75 477.75L56.75 290.75A25 25 0 0 1 59.5 256.5L209.5 119.5A75 75 0 0 1 259.5 99.9999999999999H503.7499999999999A46 46 0 0 1 550 145.5V454.5A46 46 0 0 1 503.5 500zM500 150H259.25A25 25 0 0 0 242.5 156.5000000000001L109.25 277.7500000000001L243.75 444.5A25 25 0 0 0 259.25 450H500zM282.25 232.25A25 25 0 0 1 317.75 232.25L350 264.75L382.25 232.25A25 25 0 0 1 417.75 232.25A25 25 0 0 1 417.75 267.75L385.25 300L417.75 332.25A25 25 0 0 1 382.25 367.75L350 335.25L317.75 367.75A25 25 0 0 1 282.25 332.25L314.7500000000001 300L282.25 267.75A25 25 0 0 1 282.25 232.25z" />
    <glyph glyph-name="bar-chart"
      unicode="&#xEA3B;"
      horiz-adv-x="600" d="M300 500A25 25 0 0 1 275 475V100A25 25 0 0 1 325 100V475A25 25 0 0 1 300 500zM475 300A25 25 0 0 1 450 275V100A25 25 0 0 1 500 100V275A25 25 0 0 1 475 300zM125 400A25 25 0 0 1 100 375V100A25 25 0 0 1 150 100V375A25 25 0 0 1 125 400z" />
    <glyph glyph-name="bar-chart-2"
      unicode="&#xEA3C;"
      horiz-adv-x="600" d="M300 400A25 25 0 0 1 275 375V100A25 25 0 0 1 325 100V375A25 25 0 0 1 300 400zM475 500A25 25 0 0 1 450 475V100A25 25 0 0 1 500 100V475A25 25 0 0 1 475 500zM125 300A25 25 0 0 1 100 275V100A25 25 0 0 1 150 100V275A25 25 0 0 1 125 300z" />
    <glyph glyph-name="bar-chart-2-outline"
      unicode="&#xEA3D;"
      horiz-adv-x="600" d="M300 400A25 25 0 0 1 275 375V100A25 25 0 0 1 325 100V375A25 25 0 0 1 300 400zM475 500A25 25 0 0 1 450 475V100A25 25 0 0 1 500 100V475A25 25 0 0 1 475 500zM125 300A25 25 0 0 1 100 275V100A25 25 0 0 1 150 100V275A25 25 0 0 1 125 300z" />
    <glyph glyph-name="bar-chart-outline"
      unicode="&#xEA3E;"
      horiz-adv-x="600" d="M300 500A25 25 0 0 1 275 475V100A25 25 0 0 1 325 100V475A25 25 0 0 1 300 500zM475 300A25 25 0 0 1 450 275V100A25 25 0 0 1 500 100V275A25 25 0 0 1 475 300zM125 400A25 25 0 0 1 100 375V100A25 25 0 0 1 150 100V375A25 25 0 0 1 125 400z" />
    <glyph glyph-name="battery"
      unicode="&#xEA3F;"
      horiz-adv-x="600" d="M395.75 450H104.25A57.75000000000001 57.75000000000001 0 0 1 50 389.25V210.75A57.75000000000001 57.75000000000001 0 0 1 104.25 150H395.75A57.75000000000001 57.75000000000001 0 0 1 450 210.75V389.25A57.75000000000001 57.75000000000001 0 0 1 395.75 450zM525 375A25 25 0 0 1 500 350V250A25 25 0 0 1 550 250V350A25 25 0 0 1 525 375z" />
    <glyph glyph-name="battery-outline"
      unicode="&#xEA40;"
      horiz-adv-x="600" d="M395.75 450H104.25A57.75000000000001 57.75000000000001 0 0 1 50 389.25V210.75A57.75000000000001 57.75000000000001 0 0 1 104.25 150H395.75A57.75000000000001 57.75000000000001 0 0 1 450 210.75V389.25A57.75000000000001 57.75000000000001 0 0 1 395.75 450zM400 210.75A13.000000000000002 13.000000000000002 0 0 0 395.75 200H104.5A12.5 12.5 0 0 0 100 210.75V389.25A13.25 13.25 0 0 0 104.25 400H395.5A12.5 12.5 0 0 0 400 389.25zM525 375A25 25 0 0 1 500 350V250A25 25 0 0 1 550 250V350A25 25 0 0 1 525 375z" />
    <glyph glyph-name="behance"
      unicode="&#xEA41;"
      horiz-adv-x="600" d="M369 320.25A25 25 0 0 1 344 293H395.5A25 25 0 0 1 369 320.25zM237.25 292.5H206.5V244H231.5C256.5 244 267.5 252.25 267.5 269S256 292.5 237.25 292.5zM259 337C259 350.25 250.25 358.25 235.25 358.25H206.5V314.75H227.75C250 314.75 259 322.75 259 337zM300 550A250 250 0 1 1 550 300A250 250 0 0 1 300 550zM242.5 220H175V382.5H242.5C271.75 382.5 291 367.25 291 342.5A34.99999999999999 34.99999999999999 0 0 0 263 306.7500000000001A38 38 0 0 0 300 265.75C300 236.75 275 220 242.5 220zM331.25 370H406.25V357.5H331.25zM425 273.75H342.5V270.25A26.750000000000004 26.750000000000004 0 0 1 369.75 240.5A22.500000000000004 22.500000000000004 0 0 1 394.75 256.25H425A50 50 0 0 0 370.75 217.5A53.74999999999999 53.74999999999999 0 0 0 311.75 275V286A52.75 52.75 0 0 0 368.75 342.25A53 53 0 0 0 425 285.5z" />
    <glyph glyph-name="behance-outline"
      unicode="&#xEA42;"
      horiz-adv-x="600" d="M300 550A250 250 0 1 1 550 300A250 250 0 0 1 300 550zM300 100A200 200 0 1 0 500 300A200 200 0 0 0 300 100zM263 305.5A34.99999999999999 34.99999999999999 0 0 1 291 341.25C291 366.25 271.75 381.25 242.5000000000001 381.25H175V218.75H242.5C275 220 300 236.75 300 265.75A38 38 0 0 1 263 305.5zM206.5 358.25H235.25C250.25 358.25 259 350.25 259 337S249.5 314.75 227.75 314.75H206.5zM231.5 244H206.5V292.5H237.25C256 292.5 266.5 283 266.5 267.5S256 244 230.5000000000001 244zM368.75 342.5A52.75 52.75 0 0 1 311.75 286.25V275A53.74999999999999 53.74999999999999 0 0 1 370.25 217.25A50 50 0 0 1 425 256.25H394.75A22.500000000000004 22.500000000000004 0 0 0 369.75 240.5A26.750000000000004 26.750000000000004 0 0 0 342.5 270.25V273.75H425V285.5A53 53 0 0 1 368.75 342.5zM393.75 292.5H343.25A25 25 0 0 0 368.25 319.75A25 25 0 0 0 393.25 292.5zM331.25 370H406.25V357.5H331.25V370z" />
    <glyph glyph-name="bell"
      unicode="&#xEA43;"
      horiz-adv-x="600" d="M513 219.75L468 265V376.5A171.5 171.5 0 0 1 322.5 548.5A168.50000000000003 168.50000000000003 0 0 1 132 381.75V265L87 219.75A40.99999999999999 40.99999999999999 0 0 1 116 150H200V141.5A96.00000000000001 96.00000000000001 0 0 1 300 50A96.00000000000001 96.00000000000001 0 0 1 400 141.5V150H484A40.99999999999999 40.99999999999999 0 0 1 513 219.75zM350 141.5A46.99999999999999 46.99999999999999 0 0 0 300 100A46.99999999999999 46.99999999999999 0 0 0 250 141.5V150H350z" />
    <glyph glyph-name="bell-off"
      unicode="&#xEA44;"
      horiz-adv-x="600" d="M397 132.25L382.25 147L350 180.5L348.25 182.25L164.5 365L132.75 396.5A141.99999999999997 141.99999999999997 0 0 1 132.75 381.75V265L87.75 219.75A40.99999999999999 40.99999999999999 0 0 1 116 150H200V141.5A96.00000000000001 96.00000000000001 0 0 1 300 50A97 97 0 0 1 400 130.5zM350 141.5A46.99999999999999 46.99999999999999 0 0 0 300 100A46.99999999999999 46.99999999999999 0 0 0 250 141.5V150H350zM178.25 492.5L214.75 456L452.9999999999999 217.75L502.9999999999999 167.75L510.7499999999999 160.25A39.5 39.5 0 0 1 521.9999999999999 175.2500000000001A40.5 40.5 0 0 1 513.2499999999999 219.75L468.2499999999998 265.0000000000001V376.5A171.5 171.5 0 0 1 322.4999999999999 548.5A167.75 167.75 0 0 1 189.4999999999998 508.25A172 172 0 0 1 174.9999999999998 494.75zM517.75 117.75L485.25 150L435.25 200L197.25 438.25L160.5 475L117.75 517.75A25 25 0 0 1 82.25 482.25L138.25 425L182 382.5L364.75 200L366.5 198.25L400 164.75L414.75 150L482.25 82.25A25 25 0 0 1 517.75 82.25A25 25 0 0 1 517.75 117.75z" />
    <glyph glyph-name="bell-off-outline"
      unicode="&#xEA45;"
      horiz-adv-x="600" d="M222.5 470.75A116.74999999999999 116.74999999999999 0 0 0 316 500A121.50000000000001 121.50000000000001 0 0 0 418 377.5V265A48.00000000000001 48.00000000000001 0 0 1 420.5 250.25L510.5000000000001 160.25A39.5 39.5 0 0 1 521.75 175.2500000000001A40.5 40.5 0 0 1 513 219.75L468 265.0000000000001V376.5A171.5 171.5 0 0 1 322.5 548.5A167.75 167.75 0 0 1 189.5 508.25A172 172 0 0 1 175 494.75L211.75 459A119.75 119.75 0 0 0 222.5 470.75zM350 178.5L329.25 200H137.75L167.25 229.5A50 50 0 0 1 182 265V347.25L132 397.25A141.99999999999997 141.99999999999997 0 0 1 132 382.5V265.0000000000001L87 219.75A40.74999999999999 40.74999999999999 0 0 1 116 150H200V141.5A96.00000000000001 96.00000000000001 0 0 1 300 50A97 97 0 0 1 400 130.5L379.25 150zM300 100A46.99999999999999 46.99999999999999 0 0 0 250 141.5V150H350V141.5A46.99999999999999 46.99999999999999 0 0 0 300 100zM517.75 117.75L485.25 150L435.25 200L197.25 438.25L160.5 475L117.75 517.75A25 25 0 0 1 82.25 482.25L138.25 425L182 382.5L364.75 200L366.5 198.25L400 164.75L414.75 150L482.25 82.25A25 25 0 0 1 517.75 82.25A25 25 0 0 1 517.75 117.75z" />
    <glyph glyph-name="bell-outline"
      unicode="&#xEA46;"
      horiz-adv-x="600" d="M513 219.75L468 265V376.5A171.5 171.5 0 0 1 322.5 548.5A168.50000000000003 168.50000000000003 0 0 1 132 381.75V265L87 219.75A40.99999999999999 40.99999999999999 0 0 1 116 150H200V141.5A96.00000000000001 96.00000000000001 0 0 1 300 50A96.00000000000001 96.00000000000001 0 0 1 400 141.5V150H484A40.99999999999999 40.99999999999999 0 0 1 513 219.75zM350 141.5A46.99999999999999 46.99999999999999 0 0 0 300 100A46.99999999999999 46.99999999999999 0 0 0 250 141.5V150H350zM137.75 200L167.25 229.5A50 50 0 0 1 182 265V381.75A118.25000000000001 118.25000000000001 0 0 0 222.5 470.75A116.74999999999999 116.74999999999999 0 0 0 316 500A121.50000000000001 121.50000000000001 0 0 0 418 377.5V265A50 50 0 0 1 432.5 229.5L462.2499999999999 200z" />
    <glyph glyph-name="bluetooth"
      unicode="&#xEA47;"
      horiz-adv-x="600" d="M340.75 300L440.7500000000001 394.75A28.499999999999996 28.499999999999996 0 0 1 437.5000000000001 439L320.7500000000001 519.75A29.249999999999996 29.249999999999996 0 0 1 290.5000000000001 521.75A28.75 28.75 0 0 1 275.0000000000001 496.75V341.75L195.2500000000002 441.75A25 25 0 0 1 156.2500000000002 409.25L243.0000000000001 300L155.5 189.25A25 25 0 0 1 159.5 154.2500000000001A25 25 0 0 1 175 150A25 25 0 0 1 194.5 159.5L275 261V103.7499999999999A29 29 0 0 1 304 75A29 29 0 0 1 320.75 80.25L436.75 159.75A29.249999999999996 29.249999999999996 0 0 1 449 181.0000000000001A28.75 28.75 0 0 1 440.5 203.7500000000001zM325 456L387.5 412.75L325 353.75zM325 143.75V245.5L386.75 186.0000000000001z" />
    <glyph glyph-name="bluetooth-outline"
      unicode="&#xEA48;"
      horiz-adv-x="600" d="M340.75 300L440.7500000000001 394.75A28.499999999999996 28.499999999999996 0 0 1 437.5000000000001 439L320.7500000000001 519.75A29.249999999999996 29.249999999999996 0 0 1 290.5000000000001 521.75A28.75 28.75 0 0 1 275.0000000000001 496.75V341.75L195.2500000000002 441.75A25 25 0 0 1 156.2500000000002 409.25L243.0000000000001 300L155.5 189.25A25 25 0 0 1 159.5 154.2500000000001A25 25 0 0 1 175 150A25 25 0 0 1 194.5 159.5L275 261V103.7499999999999A29 29 0 0 1 304 75A29 29 0 0 1 320.75 80.25L436.75 159.75A29.249999999999996 29.249999999999996 0 0 1 449 181.0000000000001A28.75 28.75 0 0 1 440.5 203.7500000000001zM325 456L387.5 412.75L325 353.75zM325 143.75V245.5L386.75 186.0000000000001z" />
    <glyph glyph-name="book"
      unicode="&#xEA49;"
      horiz-adv-x="600" d="M475 525H175A75 75 0 0 1 100 450V150A75 75 0 0 1 175 75H475A25 25 0 0 1 500 100V500A25 25 0 0 1 475 525zM175 125A25 25 0 0 0 175 175H450V125z" />
    <glyph glyph-name="book-open"
      unicode="&#xEA4A;"
      horiz-adv-x="600" d="M525 491.5A31 31 0 0 1 498.0000000000001 497.25L325 452.75V96L514 144.5A31.25 31.25 0 0 1 537.5 175V467A31.25 31.25 0 0 1 525 491.5zM275 452.75L101.5 497.25A31.75 31.75 0 0 1 75 491.5A31.25 31.25 0 0 1 63 466.5V175A31.25 31.25 0 0 1 86.5 144.75L275 96z" />
    <glyph glyph-name="book-open-outline"
      unicode="&#xEA4B;"
      horiz-adv-x="600" d="M515.5 494.5A25 25 0 0 1 494.5 499.5L300 455.75L105.5 500A25 25 0 0 1 75 475V170A25 25 0 0 1 94.5 145L294.5 100H305.5L505.5 145A25 25 0 0 1 525 170V475A25 25 0 0 1 515.5 494.5zM125 443.75L275 410V156.25L125 190.0000000000001zM475 190.0000000000001L325 156.25V410L475 443.75z" />
    <glyph glyph-name="book-outline"
      unicode="&#xEA4C;"
      horiz-adv-x="600" d="M475 525H175A75 75 0 0 1 100 450V150A75 75 0 0 1 175 75H475A25 25 0 0 1 500 100V500A25 25 0 0 1 475 525zM175 475H450V225H175A75 75 0 0 1 150 220.5V450A25 25 0 0 0 175 475zM175 125A25 25 0 0 0 175 175H450V125z" />
    <glyph glyph-name="bookmark"
      unicode="&#xEA4D;"
      horiz-adv-x="600" d="M150 75A25 25 0 0 0 137.75 78.25A25 25 0 0 0 125 100V466.75A56.99999999999999 56.99999999999999 0 0 0 180 525H420A56.99999999999999 56.99999999999999 0 0 0 475 466.75V100A25 25 0 0 0 462.5 78.5A25 25 0 0 0 437.5 78.5L295.75 158.7500000000001L162.5 78.75A25 25 0 0 0 150 75z" />
    <glyph glyph-name="bookmark-outline"
      unicode="&#xEA4E;"
      horiz-adv-x="600" d="M152.25 73.5A25 25 0 0 0 127.25 98.5000000000001L123.5 465A56.49999999999999 56.49999999999999 0 0 0 178 523.75L417.75 525A56.75 56.75 0 0 0 473.5000000000001 467.25L477.0000000000001 100.75A25 25 0 0 0 464.7500000000001 79A25 25 0 0 0 439.7500000000001 79L297.2500000000001 158L165.0000000000001 77.25A30 30 0 0 0 152.2500000000001 73.5zM296.25 212.2500000000001A27.750000000000007 27.750000000000007 0 0 0 308.75 209.2500000000001L426.5 144.0000000000001L423.5 467.75C423.5 472.75 420.25 476.25 418.25 476L178.25 473.75C176.25 473.75 173.4999999999999 470.5 173.4999999999999 465.5L176.4999999999999 143L283.4999999999999 208.75A26.5 26.5 0 0 0 296.2499999999999 212.25z" />
    <glyph glyph-name="briefcase"
      unicode="&#xEA4F;"
      horiz-adv-x="600" d="M175 75H425V425H400V462.5A62.5 62.5 0 0 1 337.5 525H262.5A62.5 62.5 0 0 1 200 462.5V425H175zM250 462.5A12.5 12.5 0 0 0 262.5 475H337.5A12.5 12.5 0 0 0 350 462.5V425H250zM475 425V75A75 75 0 0 1 550 150V350A75 75 0 0 1 475 425zM125 425A75 75 0 0 1 50 350V150A75 75 0 0 1 125 75z" />
    <glyph glyph-name="briefcase-outline"
      unicode="&#xEA50;"
      horiz-adv-x="600" d="M475 425H400V462.5A62.5 62.5 0 0 1 337.5 525H262.5A62.5 62.5 0 0 1 200 462.5V425H125A75 75 0 0 1 50 350V150A75 75 0 0 1 125 75H475A75 75 0 0 1 550 150V350A75 75 0 0 1 475 425zM375 375V125H225V375zM250 462.5A12.5 12.5 0 0 0 262.5 475H337.5A12.5 12.5 0 0 0 350 462.5V425H250zM100 150V350A25 25 0 0 0 125 375H175V125H125A25 25 0 0 0 100 150zM500 150A25 25 0 0 0 475 125H425V375H475A25 25 0 0 0 500 350z" />
    <glyph glyph-name="browser"
      unicode="&#xEA51;"
      horiz-adv-x="600" d="M450 525H150A75 75 0 0 1 75 450V150A75 75 0 0 1 150 75H450A75 75 0 0 1 525 150V450A75 75 0 0 1 450 525zM300 450A25 25 0 1 0 275 425A25 25 0 0 0 300 450zM200 450A25 25 0 1 0 175 425A25 25 0 0 0 200 450zM475 150A25 25 0 0 0 450 125H150A25 25 0 0 0 125 150V325H475z" />
    <glyph glyph-name="browser-outline"
      unicode="&#xEA52;"
      horiz-adv-x="600" d="M450 525H150A75 75 0 0 1 75 450V150A75 75 0 0 1 150 75H450A75 75 0 0 1 525 150V450A75 75 0 0 1 450 525zM475 150A25 25 0 0 0 450 125H150A25 25 0 0 0 125 150V325H475zM125 375V450A25 25 0 0 0 150 475H450A25 25 0 0 0 475 450V375zM175 424.25A25 25 0 0 1 225 424.25A25 25 0 0 1 175 424.25M275 424.25A25 25 0 0 1 325 424.25A25 25 0 0 1 275 424.25" />
    <glyph glyph-name="brush"
      unicode="&#xEA53;"
      horiz-adv-x="600" d="M178 286.25A100 100 0 0 1 101.25 189.75V112A11.749999999999998 11.749999999999998 0 0 1 113.25 100L194.25 101.4999999999999A94.5 94.5 0 0 1 280.25 156.5A91.25 91.25 0 0 1 178 286.25zM481.5000000000001 488.5A53.50000000000001 53.50000000000001 0 0 1 409.5000000000001 483.25L250 323A11.749999999999998 11.749999999999998 0 0 1 250 306.5L306.25 250A11.749999999999998 11.749999999999998 0 0 1 322.75 250L484.9999999999999 411.75A51.50000000000001 51.50000000000001 0 0 1 500 448.5A50 50 0 0 1 481.5000000000001 488.5z" />
    <glyph glyph-name="brush-outline"
      unicode="&#xEA54;"
      horiz-adv-x="600" d="M500 429.25A68.99999999999999 68.99999999999999 0 0 1 479.5 479.25A72.25 72.25 0 0 1 379.5 479.25L214.5 314.25H209A110.50000000000001 110.50000000000001 0 0 1 101.5 206.5000000000001L100 125A25 25 0 0 1 107.25 106.75A26.25 26.25 0 0 1 125 100L206.5 101.4999999999999A110.50000000000001 110.50000000000001 0 0 1 314.25 209V214.75L479.5 379.75A68.50000000000001 68.50000000000001 0 0 1 500 429.25zM206.25 151.5L150 150V205.75A60 60 0 0 0 210 264.75A53.74999999999999 53.74999999999999 0 0 0 263.75 210A60 60 0 0 0 206.25 151.5000000000001zM444.25 415.25L297.5 268.5A113.74999999999999 113.74999999999999 0 0 1 284.5 284.5A98.5 98.5 0 0 1 268.5 297.5L415.25 444A21 21 0 0 0 444.25 444A20.25 20.25 0 0 0 450 429.25A19.75 19.75 0 0 0 444.25 415.25z" />
    <glyph glyph-name="bulb"
      unicode="&#xEA55;"
      horiz-adv-x="600" d="M300 425A125 125 0 0 1 225 200V100A50 50 0 0 1 275 50H325A50 50 0 0 1 375 100V200A125 125 0 0 1 300 425zM300 450A25 25 0 0 1 325 475V525A25 25 0 0 1 275 525V475A25 25 0 0 1 300 450zM525 325H475A25 25 0 0 1 475 275H525A25 25 0 0 1 525 325zM125 325H75A25 25 0 0 1 75 275H125A25 25 0 0 1 125 325zM191.5 439.5L155.5 475A25 25 0 0 1 120.75 438.25L156.75 403.5A25 25 0 0 1 175 396.5A25 25 0 0 1 193 404.25A25 25 0 0 1 191.5 439.5zM479.7500000000001 473.75A25 25 0 0 1 444.5 473.75L408.5 439.5A25 25 0 0 1 408.5 404.25A25 25 0 0 1 426.5 396.5A25 25 0 0 1 443.75 403.5L479.7500000000001 438.25A25 25 0 0 1 479.7500000000001 473.75z" />
    <glyph glyph-name="bulb-outline"
      unicode="&#xEA56;"
      horiz-adv-x="600" d="M300 425A125 125 0 0 1 225 200V100A50 50 0 0 1 275 50H325A50 50 0 0 1 375 100V200A125 125 0 0 1 300 425zM337.5 235.25A25 25 0 0 1 325 213.5V100H275V213.5A25 25 0 0 1 262.5 235.25A75 75 0 0 0 225 300A75 75 0 0 0 375 300A75 75 0 0 0 337.5 235.25zM300 450A25 25 0 0 1 325 475V525A25 25 0 0 1 275 525V475A25 25 0 0 1 300 450zM525 325H475A25 25 0 0 1 475 275H525A25 25 0 0 1 525 325zM125 325H75A25 25 0 0 1 75 275H125A25 25 0 0 1 125 325zM191.5 439.5L155.5 475A25 25 0 0 1 120.75 438.25L156.75 403.5A25 25 0 0 1 175 396.5A25 25 0 0 1 193 404.25A25 25 0 0 1 191.5 439.5zM479.7500000000001 473.75A25 25 0 0 1 444.5 473.75L408.5 439.5A25 25 0 0 1 408.5 404.25A25 25 0 0 1 426.5 396.5A25 25 0 0 1 443.75 403.5L479.7500000000001 438.25A25 25 0 0 1 479.7500000000001 473.75z" />
    <glyph glyph-name="calendar"
      unicode="&#xEA57;"
      horiz-adv-x="600" d="M450 500H425V525A25 25 0 0 1 375 525V500H225V525A25 25 0 0 1 175 525V500H150A75 75 0 0 1 75 425V125A75 75 0 0 1 150 50H450A75 75 0 0 1 525 125V425A75 75 0 0 1 450 500zM200 175A25 25 0 1 0 225 200A25 25 0 0 0 200 175zM400 175H300A25 25 0 0 0 300 225H400A25 25 0 0 0 400 175zM475 325H125V425A25 25 0 0 0 150 450H175V425A25 25 0 0 1 225 425V450H375V425A25 25 0 0 1 425 425V450H450A25 25 0 0 0 475 425z" />
    <glyph glyph-name="calendar-outline"
      unicode="&#xEA58;"
      horiz-adv-x="600" d="M450 500H425V525A25 25 0 0 1 375 525V500H225V525A25 25 0 0 1 175 525V500H150A75 75 0 0 1 75 425V125A75 75 0 0 1 150 50H450A75 75 0 0 1 525 125V425A75 75 0 0 1 450 500zM150 450H175V425A25 25 0 0 1 225 425V450H375V425A25 25 0 0 1 425 425V450H450A25 25 0 0 0 475 425V325H125V425A25 25 0 0 0 150 450zM450 100H150A25 25 0 0 0 125 125V275H475V125A25 25 0 0 0 450 100zM175 200A25 25 0 0 1 225 200A25 25 0 0 1 175 200M400 225H300A25 25 0 0 1 300 175H400A25 25 0 0 1 400 225z" />
    <glyph glyph-name="camera"
      unicode="&#xEA59;"
      horiz-adv-x="600" d="M262.5 250A37.5 37.5 0 0 1 337.5 250A37.5 37.5 0 0 1 262.5 250M475 425H400V462.5A62.5 62.5 0 0 1 337.5 525H262.5A62.5 62.5 0 0 1 200 462.5V425H125A75 75 0 0 1 50 350V150A75 75 0 0 1 125 75H475A75 75 0 0 1 550 150V350A75 75 0 0 1 475 425zM250 462.5A12.5 12.5 0 0 0 262.5 475H337.5A12.5 12.5 0 0 0 350 462.5V425H250zM300 162.5A87.5 87.5 0 1 0 387.5 250A87.5 87.5 0 0 0 300 162.5z" />
    <glyph glyph-name="camera-outline"
      unicode="&#xEA5A;"
      horiz-adv-x="600" d="M475 425H400V462.5A62.5 62.5 0 0 1 337.5 525H262.5A62.5 62.5 0 0 1 200 462.5V425H125A75 75 0 0 1 50 350V150A75 75 0 0 1 125 75H475A75 75 0 0 1 550 150V350A75 75 0 0 1 475 425zM250 462.5A12.5 12.5 0 0 0 262.5 475H337.5A12.5 12.5 0 0 0 350 462.5V425H250zM500 150A25 25 0 0 0 475 125H125A25 25 0 0 0 100 150V350A25 25 0 0 0 125 375H475A25 25 0 0 0 500 350zM300 337.5A87.5 87.5 0 1 1 387.5 250A87.5 87.5 0 0 1 300 337.5zM300 212.5A37.5 37.5 0 1 0 337.5 250A37.5 37.5 0 0 0 300 212.5z" />
    <glyph glyph-name="car"
      unicode="&#xEA5B;"
      horiz-adv-x="600" d="M540 319.5L425 412V475A47.75000000000001 47.75000000000001 0 0 1 379.75 525H94.75A47.75000000000001 47.75000000000001 0 0 1 50 475V225A50 50 0 0 1 80 178A75 75 0 1 1 220 175H379A75 75 0 1 1 520 175H525A25 25 0 0 1 550 200V300A25 25 0 0 1 540 319.5zM500 288V225H425V348zM175 150A25 25 0 1 0 150 175A25 25 0 0 0 175 150zM475 150A25 25 0 1 0 450 175A25 25 0 0 0 475 150z" />
    <glyph glyph-name="car-outline"
      unicode="&#xEA5C;"
      horiz-adv-x="600" d="M540 319.5L425 412V475A47.75000000000001 47.75000000000001 0 0 1 379.75 525H94.75A47.75000000000001 47.75000000000001 0 0 1 50 475V225A50 50 0 0 1 80 178A75 75 0 1 1 220 175H379A75 75 0 1 1 520 175H525A25 25 0 0 1 550 200V300A25 25 0 0 1 540 319.5zM500 288V225H425V348zM175 150A25 25 0 1 0 150 175A25 25 0 0 0 175 150zM300 225H100V475H375V225zM475 150A25 25 0 1 0 450 175A25 25 0 0 0 475 150z" />
    <glyph glyph-name="cast"
      unicode="&#xEA5D;"
      horiz-adv-x="600" d="M459.9999999999999 525H140A67.50000000000001 67.50000000000001 0 0 1 75 455.5V425A25 25 0 0 1 125 425V455.5A18 18 0 0 0 140 475H459.9999999999999A18 18 0 0 0 475 455.5V144.5A18 18 0 0 0 459.9999999999999 125H425A25 25 0 0 1 425 75H459.9999999999999A67.50000000000001 67.50000000000001 0 0 1 525 144.5V455.5A67.50000000000001 67.50000000000001 0 0 1 459.9999999999999 525zM96.5 250A25 25 0 0 1 75 220.75A25 25 0 0 1 103.5 200A62.25000000000001 62.25000000000001 0 0 0 156.5 182A63.00000000000001 63.00000000000001 0 0 0 169.25 111.0000000000001A25 25 0 0 1 181.25 77.75A26.5 26.5 0 0 1 191.75 75.5A25 25 0 0 1 214.5 89.9999999999999A112.99999999999999 112.99999999999999 0 0 1 96.5 250zM96.5 348A25 25 0 0 1 103.5 298A150 150 0 0 0 230.75 255.25A150 150 0 0 0 269 106.5000000000001A25 25 0 0 1 286 75A22.500000000000004 22.500000000000004 0 0 1 293 75A25 25 0 0 1 318 93A200 200 0 0 1 97.5 348zM75 125A25 25 0 0 1 125 125A25 25 0 0 1 75 125" />
    <glyph glyph-name="cast-outline"
      unicode="&#xEA5E;"
      horiz-adv-x="600" d="M459.9999999999999 525H140A67.50000000000001 67.50000000000001 0 0 1 75 455.5V425A25 25 0 0 1 125 425V455.5A18 18 0 0 0 140 475H459.9999999999999A18 18 0 0 0 475 455.5V144.5A18 18 0 0 0 459.9999999999999 125H425A25 25 0 0 1 425 75H459.9999999999999A67.50000000000001 67.50000000000001 0 0 1 525 144.5V455.5A67.50000000000001 67.50000000000001 0 0 1 459.9999999999999 525zM96.5 250A25 25 0 0 1 75 220.75A25 25 0 0 1 103.5 200A62.25000000000001 62.25000000000001 0 0 0 156.5 182A63.00000000000001 63.00000000000001 0 0 0 169.25 111.0000000000001A25 25 0 0 1 181.25 77.75A26.5 26.5 0 0 1 191.75 75.5A25 25 0 0 1 214.5 89.9999999999999A112.99999999999999 112.99999999999999 0 0 1 96.5 250zM96.5 348A25 25 0 0 1 103.5 298A150 150 0 0 0 230.75 255.25A150 150 0 0 0 269 106.5000000000001A25 25 0 0 1 286 75A22.500000000000004 22.500000000000004 0 0 1 293 75A25 25 0 0 1 318 93A200 200 0 0 1 97.5 348zM75 125A25 25 0 0 1 125 125A25 25 0 0 1 75 125" />
    <glyph glyph-name="charging"
      unicode="&#xEA5F;"
      horiz-adv-x="600" d="M282 275H175A25 25 0 0 0 153.5 287.5A25 25 0 0 0 153.5 312.5L232 450H104.25A57.75000000000001 57.75000000000001 0 0 1 50 389.25V210.75A57.75000000000001 57.75000000000001 0 0 1 104.25 150H210.5zM395.75 450H289.5L218 325H325A25 25 0 0 0 346.5 312.5A25 25 0 0 0 346.5 287.5L268 150H395.7500000000001A57.75000000000001 57.75000000000001 0 0 1 450 210.75V389.25A57.75000000000001 57.75000000000001 0 0 1 395.75 450zM525 375A25 25 0 0 1 500 350V250A25 25 0 0 1 550 250V350A25 25 0 0 1 525 375z" />
    <glyph glyph-name="charging-outline"
      unicode="&#xEA60;"
      horiz-adv-x="600" d="M525 375A25 25 0 0 1 500 350V250A25 25 0 0 1 550 250V350A25 25 0 0 1 525 375zM395.75 450H318.25L289.75 400H395.5A12.5 12.5 0 0 0 400 389.25V210.75A13.000000000000002 13.000000000000002 0 0 0 395.75 200H325L296.25 150H396.25A57.75000000000001 57.75000000000001 0 0 1 450 210.75V389.25A57.75000000000001 57.75000000000001 0 0 1 395.75 450zM100 210.75V389.25A13.25 13.25 0 0 0 104.25 400H175L203.25 450H103.25A57.75000000000001 57.75000000000001 0 0 1 50 389.25V210.75A57.75000000000001 57.75000000000001 0 0 1 104.25 150H181.75L210.25 200H104.5A12.5 12.5 0 0 0 100 210.75zM225 100A25 25 0 0 0 203.25 137.5L282 275H175A25 25 0 0 0 153.5 287.5A25 25 0 0 0 153.5 312.5L253.5 487.5A25 25 0 0 0 297 462.5L218 325H325A25 25 0 0 0 346.5 312.5A25 25 0 0 0 346.5 287.5L246.5 112.5A25 25 0 0 0 225 100z" />
    <glyph glyph-name="checkmark"
      unicode="&#xEA61;"
      horiz-adv-x="600" d="M246.5 150A25 25 0 0 0 228.25 158L106.75 287.25A25 25 0 1 0 143.25 321.5L246.25 211.75L456.4999999999999 441.75A25 25 0 1 0 493.4999999999999 408.25L265 158.25A25 25 0 0 0 246.75 150z" />
    <glyph glyph-name="checkmark-circle"
      unicode="&#xEA62;"
      horiz-adv-x="600" d="M242.7500000000001 317.75A25 25 0 0 1 207.25 282.25L282.25 207.25A25 25 0 0 1 300 200A25 25 0 0 1 318 208.5L493 408.5A25 25 0 0 1 455.5 441.5L300 261.5zM525 325A25 25 0 0 1 500 300A200 200 0 0 0 300 100A200 200 0 0 0 158.25 441A198.25 198.25 0 0 0 300 500A219.74999999999997 219.74999999999997 0 0 0 347.5 494.5A25 25 0 1 1 359.25 543A263.5 263.5 0 0 1 300 550A250 250 0 0 1 125 122.75A248.25000000000003 248.25000000000003 0 0 1 300 50A250 250 0 0 1 550 300A25 25 0 0 1 525 325z" />
    <glyph glyph-name="checkmark-circle-2"
      unicode="&#xEA63;"
      horiz-adv-x="600" d="M300 550A250 250 0 1 1 550 300A250 250 0 0 1 300 550zM407.5 359.75L293.25 209.75A25 25 0 0 0 273.5000000000001 200A25 25 0 0 0 253.7500000000001 209.5L192.7500000000001 287.25A25 25 0 0 0 232.2500000000001 318L273.0000000000001 266L367.5 391A25 25 0 1 0 407.5 360.5z" />
    <glyph glyph-name="checkmark-circle-2-outline"
      unicode="&#xEA64;"
      horiz-adv-x="600" d="M300 550A250 250 0 1 1 550 300A250 250 0 0 1 300 550zM300 100A200 200 0 1 0 500 300A200 200 0 0 0 300 100zM367.5 390.25L273 265.25L232.25 318A25 25 0 0 1 192.75 287.25L253.5 209.5A25 25 0 0 1 273.25 200A25 25 0 0 1 293 209.75L407.25 359.75A25 25 0 1 1 367.25 390.25z" />
    <glyph glyph-name="checkmark-circle-outline"
      unicode="&#xEA65;"
      horiz-adv-x="600" d="M242.7500000000001 317.75A25 25 0 0 1 207.25 282.25L282.25 207.25A25 25 0 0 1 300 200A25 25 0 0 1 318 208.5L493 408.5A25 25 0 0 1 455.5 441.5L300 261.5zM525 325A25 25 0 0 1 500 300A200 200 0 0 0 300 100A200 200 0 0 0 158.25 441A198.25 198.25 0 0 0 300 500A219.74999999999997 219.74999999999997 0 0 0 347.5 494.5A25 25 0 1 1 359.25 543A263.5 263.5 0 0 1 300 550A250 250 0 0 1 125 122.75A248.25000000000003 248.25000000000003 0 0 1 300 50A250 250 0 0 1 550 300A25 25 0 0 1 525 325z" />
    <glyph glyph-name="checkmark-outline"
      unicode="&#xEA66;"
      horiz-adv-x="600" d="M246.5 150A25 25 0 0 0 228.25 158L106.75 287.25A25 25 0 1 0 143.25 321.5L246.25 211.75L456.4999999999999 441.75A25 25 0 1 0 493.4999999999999 408.25L265 158.25A25 25 0 0 0 246.75 150z" />
    <glyph glyph-name="checkmark-square"
      unicode="&#xEA67;"
      horiz-adv-x="600" d="M500 304.25A25 25 0 0 1 475 279.25V140.0000000000001A15 15 0 0 0 459.9999999999999 125H140A15 15 0 0 0 125 140.0000000000001V460A15 15 0 0 0 140 475H379.25A25 25 0 1 1 379.25 525H140A65.25 65.25 0 0 1 75 460V140.0000000000001A65.25 65.25 0 0 1 140 75H459.9999999999999A65.25 65.25 0 0 1 525 140.0000000000001V279.2500000000001A25 25 0 0 1 500 304.2500000000001zM268 325A25 25 0 0 1 232.0000000000001 290.5L287.5000000000001 232.25A25 25 0 0 1 305.5000000000001 224.5A25 25 0 0 1 323.5000000000001 232L493.0000000000001 407A25 25 0 1 1 457 442L305.75 285.5000000000001z" />
    <glyph glyph-name="checkmark-square-2"
      unicode="&#xEA68;"
      horiz-adv-x="600" d="M450 525H150A75 75 0 0 1 75 450V150A75 75 0 0 1 150 75H450A75 75 0 0 1 525 150V450A75 75 0 0 1 450 525zM407.5 359.75L293.25 209.75A25 25 0 0 0 273.5000000000001 200A25 25 0 0 0 253.7500000000001 209.5L192.7500000000001 287.25A25 25 0 0 0 232.2500000000001 318L273.0000000000001 266L367.5 391A25 25 0 1 0 407.5 360.5z" />
    <glyph glyph-name="checkmark-square-2-outline"
      unicode="&#xEA69;"
      horiz-adv-x="600" d="M450 525H150A75 75 0 0 1 75 450V150A75 75 0 0 1 150 75H450A75 75 0 0 1 525 150V450A75 75 0 0 1 450 525zM475 150A25 25 0 0 0 450 125H150A25 25 0 0 0 125 150V450A25 25 0 0 0 150 475H450A25 25 0 0 0 475 450zM367.5 390.25L273 265.25L232.25 318A25 25 0 0 1 192.75 287.25L253.5 209.5A25 25 0 0 1 273.25 200A25 25 0 0 1 293 209.75L407.25 359.75A25 25 0 1 1 367.25 390.25z" />
    <glyph glyph-name="checkmark-square-outline"
      unicode="&#xEA6A;"
      horiz-adv-x="600" d="M500 304.25A25 25 0 0 1 475 279.25V140.0000000000001A15 15 0 0 0 459.9999999999999 125H140A15 15 0 0 0 125 140.0000000000001V460A15 15 0 0 0 140 475H379.25A25 25 0 1 1 379.25 525H140A65.25 65.25 0 0 1 75 460V140.0000000000001A65.25 65.25 0 0 1 140 75H459.9999999999999A65.25 65.25 0 0 1 525 140.0000000000001V279.2500000000001A25 25 0 0 1 500 304.2500000000001zM268 325A25 25 0 0 1 232.0000000000001 290.5L287.5000000000001 232.25A25 25 0 0 1 305.5000000000001 224.5A25 25 0 0 1 323.5000000000001 232L493.0000000000001 407A25 25 0 1 1 457 442L305.75 285.5000000000001z" />
    <glyph glyph-name="chevron-down"
      unicode="&#xEA6B;"
      horiz-adv-x="600" d="M300 212.5A25 25 0 0 0 282.25 219.75L182.25 319.75A25 25 0 1 0 217.75 355.25L300 272.5L382.5 352A25 25 0 1 0 417 316L317 219.5A25 25 0 0 0 300 212.5000000000001z" />
    <glyph glyph-name="chevron-down-outline"
      unicode="&#xEA6C;"
      horiz-adv-x="600" d="M300 212.5A25 25 0 0 0 282.25 219.75L182.25 319.75A25 25 0 1 0 217.75 355.25L300 272.5L382.5 352A25 25 0 1 0 417 316L317 219.5A25 25 0 0 0 300 212.5000000000001z" />
    <glyph glyph-name="chevron-left"
      unicode="&#xEA6D;"
      horiz-adv-x="600" d="M334 175A25 25 0 0 0 316 182.75L219.5 282.75A25 25 0 0 0 219.5 317.75L319.5 417.75A25 25 0 1 0 355 382.25L272.5 300L352 217.5A25 25 0 0 0 352 182.25A25 25 0 0 0 334 175z" />
    <glyph glyph-name="chevron-left-outline"
      unicode="&#xEA6E;"
      horiz-adv-x="600" d="M334 175A25 25 0 0 0 316 182.75L219.5 282.75A25 25 0 0 0 219.5 317.75L319.5 417.75A25 25 0 1 0 355 382.25L272.5 300L352 217.5A25 25 0 0 0 352 182.25A25 25 0 0 0 334 175z" />
    <glyph glyph-name="chevron-right"
      unicode="&#xEA6F;"
      horiz-adv-x="600" d="M262.5 175A25 25 0 0 0 244.75 182.25A25 25 0 0 0 244.75 217.75L327.5 300L248 382.75A25 25 0 0 0 248 418A25 25 0 0 0 283.5 418L380 318A25 25 0 0 0 380 283L280 183A25 25 0 0 0 262.5 175z" />
    <glyph glyph-name="chevron-right-outline"
      unicode="&#xEA70;"
      horiz-adv-x="600" d="M262.5 175A25 25 0 0 0 244.75 182.25A25 25 0 0 0 244.75 217.75L327.5 300L248 382.75A25 25 0 0 0 248 418A25 25 0 0 0 283.5 418L380 318A25 25 0 0 0 380 283L280 183A25 25 0 0 0 262.5 175z" />
    <glyph glyph-name="chevron-up"
      unicode="&#xEA71;"
      horiz-adv-x="600" d="M400 237.5A25 25 0 0 0 382.25 244.75L300 327.5L217.5 248A25 25 0 0 0 182.25 248A25 25 0 0 0 182.25 283.5L282.25 380A25 25 0 0 0 317.25 380L417.25 280A25 25 0 0 0 417.25 244.5A25 25 0 0 0 400 237.5z" />
    <glyph glyph-name="chevron-up-outline"
      unicode="&#xEA72;"
      horiz-adv-x="600" d="M400 237.5A25 25 0 0 0 382.25 244.75L300 327.5L217.5 248A25 25 0 0 0 182.25 248A25 25 0 0 0 182.25 283.5L282.25 380A25 25 0 0 0 317.25 380L417.25 280A25 25 0 0 0 417.25 244.5A25 25 0 0 0 400 237.5z" />
    <glyph glyph-name="clipboard"
      unicode="&#xEA73;"
      horiz-adv-x="600" d="M450 500V425A50 50 0 0 0 400 375H200A50 50 0 0 0 150 425V500A75 75 0 0 1 75 425V125A75 75 0 0 1 150 50H450A75 75 0 0 1 525 125V425A75 75 0 0 1 450 500zM200 550H400A25 25 0 0 0 425 525V425A25 25 0 0 0 400 400H200A25 25 0 0 0 175 425V525A25 25 0 0 0 200 550z" />
    <glyph glyph-name="clipboard-outline"
      unicode="&#xEA74;"
      horiz-adv-x="600" d="M450 475V500A50 50 0 0 1 400 550H200A50 50 0 0 1 150 500V475A75 75 0 0 1 75 400V125A75 75 0 0 1 150 50H450A75 75 0 0 1 525 125V400A75 75 0 0 1 450 475zM200 500H400V400H200V500zM475 125A25 25 0 0 0 450 100H150A25 25 0 0 0 125 125V400A25 25 0 0 0 150 425V400A50 50 0 0 1 200 350H400A50 50 0 0 1 450 400V425A25 25 0 0 0 475 400z" />
    <glyph glyph-name="clock"
      unicode="&#xEA75;"
      horiz-adv-x="600" d="M300 550A250 250 0 1 1 550 300A250 250 0 0 1 300 550zM400 275H300A25 25 0 0 0 275 300V400A25 25 0 0 0 325 400V325H400A25 25 0 0 0 400 275z" />
    <glyph glyph-name="clock-outline"
      unicode="&#xEA76;"
      horiz-adv-x="600" d="M300 550A250 250 0 1 1 550 300A250 250 0 0 1 300 550zM300 100A200 200 0 1 0 500 300A200 200 0 0 0 300 100zM400 325H325V400A25 25 0 0 1 275 400V300A25 25 0 0 1 300 275H400A25 25 0 0 1 400 325z" />
    <glyph glyph-name="close"
      unicode="&#xEA77;"
      horiz-adv-x="600" d="M335.25 300L442.75 407.25A25 25 0 1 1 407.25 442.75L300 335.25L192.75 442.75A25 25 0 0 1 157.25 407.25L264.75 300L157.25 192.75A25 25 0 0 1 157.25 157.25A25 25 0 0 1 192.75 157.25L300 264.75L407.25 157.25A25 25 0 0 1 442.75 157.25A25 25 0 0 1 442.75 192.75z" />
    <glyph glyph-name="close-circle"
      unicode="&#xEA78;"
      horiz-adv-x="600" d="M300 550A250 250 0 1 1 550 300A250 250 0 0 1 300 550zM367.75 267.75A25 25 0 0 0 367.75 232.25A25 25 0 0 0 332.25 232.25L300 264.75L267.75 232.25A25 25 0 0 0 232.2500000000001 232.25A25 25 0 0 0 232.2500000000001 267.75L264.7500000000001 300L232.2500000000001 332.25A25 25 0 0 0 267.75 367.75L300 335.25L332.25 367.75A25 25 0 0 0 367.75 332.25L335.25 300z" />
    <glyph glyph-name="close-circle-outline"
      unicode="&#xEA79;"
      horiz-adv-x="600" d="M300 550A250 250 0 1 1 550 300A250 250 0 0 1 300 550zM300 100A200 200 0 1 0 500 300A200 200 0 0 0 300 100zM367.75 367.75A25 25 0 0 1 332.25 367.75L300 335.25L267.75 367.75A25 25 0 0 1 232.2500000000001 332.25L264.7500000000001 300L232.2500000000001 267.75A25 25 0 0 1 232.2500000000001 232.25A25 25 0 0 1 267.75 232.25L300 264.7500000000001L332.25 232.25A25 25 0 0 1 367.75 232.25A25 25 0 0 1 367.75 267.75L335.25 300L367.75 332.25A25 25 0 0 1 367.75 367.75z" />
    <glyph glyph-name="close-outline"
      unicode="&#xEA7A;"
      horiz-adv-x="600" d="M335.25 300L442.75 407.25A25 25 0 1 1 407.25 442.75L300 335.25L192.75 442.75A25 25 0 0 1 157.25 407.25L264.75 300L157.25 192.75A25 25 0 0 1 157.25 157.25A25 25 0 0 1 192.75 157.25L300 264.75L407.25 157.25A25 25 0 0 1 442.75 157.25A25 25 0 0 1 442.75 192.75z" />
    <glyph glyph-name="close-square"
      unicode="&#xEA7B;"
      horiz-adv-x="600" d="M450 525H150A75 75 0 0 1 75 450V150A75 75 0 0 1 150 75H450A75 75 0 0 1 525 150V450A75 75 0 0 1 450 525zM367.75 267.75A25 25 0 0 0 367.75 232.25A25 25 0 0 0 332.25 232.25L300 264.75L267.75 232.25A25 25 0 0 0 232.2500000000001 232.25A25 25 0 0 0 232.2500000000001 267.75L264.7500000000001 300L232.2500000000001 332.25A25 25 0 0 0 267.75 367.75L300 335.25L332.25 367.75A25 25 0 0 0 367.75 332.25L335.25 300z" />
    <glyph glyph-name="close-square-outline"
      unicode="&#xEA7C;"
      horiz-adv-x="600" d="M450 525H150A75 75 0 0 1 75 450V150A75 75 0 0 1 150 75H450A75 75 0 0 1 525 150V450A75 75 0 0 1 450 525zM475 150A25 25 0 0 0 450 125H150A25 25 0 0 0 125 150V450A25 25 0 0 0 150 475H450A25 25 0 0 0 475 450zM367.75 367.75A25 25 0 0 1 332.25 367.75L300 335.25L267.75 367.75A25 25 0 0 1 232.2500000000001 332.25L264.7500000000001 300L232.2500000000001 267.75A25 25 0 0 1 232.2500000000001 232.25A25 25 0 0 1 267.75 232.25L300 264.7500000000001L332.25 232.25A25 25 0 0 1 367.75 232.25A25 25 0 0 1 367.75 267.75L335.25 300L367.75 332.25A25 25 0 0 1 367.75 367.75z" />
    <glyph glyph-name="cloud-download"
      unicode="&#xEA7D;"
      horiz-adv-x="600" d="M547.5 325C547.5 327.75 546 330.5 545.25 333.25A104.25 104.25 0 0 1 540.75 347.5C539.5 350.5 537.75 353.5 536.25 356.75S532.5 364.25 530.25 367.75S525 373 525 375S520 381.25 517.25 384.25S512 389.25 509.25 391.75L500 400L491 406A92 92 0 0 1 480 411.75L470.2499999999999 416.25A103.25 103.25 0 0 1 457.7499999999999 420A75 75 0 0 1 447.5 422.25H443A150 150 0 0 1 158.25 425H153.75A75 75 0 0 1 143.5 422.75A103.25 103.25 0 0 1 131 419L121.25 414.5A92 92 0 0 1 110.25 408.75L101.25 400L92 392.25C89.25 389.75 86.5 387.5 84 384.75S78.75 378.5 76.25 375.5S71.75 369.75 69.75 366.5S65.75 359.25 63.75 355.5S60.5 349.25 59.25 346.25A104.25 104.25 0 0 1 54.75 332C54.75 329.2500000000001 53 326.5 52.5 323.75A130.75 130.75 0 0 1 50 300A137.5 137.5 0 0 1 52.25 277.25C52.25 274.75 53.5 272.5 54 270A139.5 139.5 0 0 1 58.5 255.5L61.5 248.2500000000001A125 125 0 0 1 69 234.25L72.5 228.75A14.000000000000002 14.000000000000002 0 0 1 73.75 226.75L75 225A125 125 0 0 1 175 175A50 50 0 0 0 189.75 210.25A50 50 0 0 0 225 225A48.00000000000001 48.00000000000001 0 0 0 250 218.25V300A50 50 0 0 0 350 300V215.75A50 50 0 0 0 375 222.5A51.25 51.25 0 0 0 411.0000000000001 207.25A50 50 0 0 0 425 175A125 125 0 0 1 525 225L526.25 226.25A14.000000000000002 14.000000000000002 0 0 1 527.5 228.25L531 233.7500000000001A125 125 0 0 1 538.5000000000001 247.7500000000001L541.5000000000001 255A139.5 139.5 0 0 1 546.0000000000001 269.5C546.0000000000001 272 547.2500000000001 274.25 547.7500000000001 276.75A137.5 137.5 0 0 1 550 300A130.75 130.75 0 0 1 547.5 325zM357.75 190.5L325 159V300A25 25 0 0 1 275 300V160.25L242.7500000000001 192.75A25 25 0 0 1 207.25 157.25L282.25 82.25A25 25 0 0 1 300 75A25 25 0 0 1 317.25 82L392.25 154.5A25 25 0 1 1 357.75 190.5zM547.5 325C547.5 327.75 546 330.5 545.25 333.25A104.25 104.25 0 0 1 540.75 347.5C539.5 350.5 537.75 353.5 536.25 356.75S532.5 364.25 530.25 367.75S525 373 525 375S520 381.25 517.25 384.25S512 389.25 509.25 391.75L500 400L491 406A92 92 0 0 1 480 411.75L470.2499999999999 416.25A103.25 103.25 0 0 1 457.7499999999999 420A75 75 0 0 1 447.5 422.25H443A150 150 0 0 1 158.25 425H153.75A75 75 0 0 1 143.5 422.75A103.25 103.25 0 0 1 131 419L121.25 414.5A92 92 0 0 1 110.25 408.75L101.25 400L92 392.25C89.25 389.75 86.5 387.5 84 384.75S78.75 378.5 76.25 375.5S71.75 369.75 69.75 366.5S65.75 359.25 63.75 355.5S60.5 349.25 59.25 346.25A104.25 104.25 0 0 1 54.75 332C54.75 329.2500000000001 53 326.5 52.5 323.75A130.75 130.75 0 0 1 50 300A137.5 137.5 0 0 1 52.25 277.25C52.25 274.75 53.5 272.5 54 270A139.5 139.5 0 0 1 58.5 255.5L61.5 248.2500000000001A125 125 0 0 1 69 234.25L72.5 228.75A14.000000000000002 14.000000000000002 0 0 1 73.75 226.75L75 225A125 125 0 0 1 175 175A50 50 0 0 0 189.75 210.25A50 50 0 0 0 225 225A48.00000000000001 48.00000000000001 0 0 0 250 218.25V300A50 50 0 0 0 350 300V215.75A50 50 0 0 0 375 222.5A51.25 51.25 0 0 0 411.0000000000001 207.25A50 50 0 0 0 425 175A125 125 0 0 1 525 225L526.25 226.25A14.000000000000002 14.000000000000002 0 0 1 527.5 228.25L531 233.7500000000001A125 125 0 0 1 538.5000000000001 247.7500000000001L541.5000000000001 255A139.5 139.5 0 0 1 546.0000000000001 269.5C546.0000000000001 272 547.2500000000001 274.25 547.7500000000001 276.75A137.5 137.5 0 0 1 550 300A130.75 130.75 0 0 1 547.5 325zM357.75 190.5L325 159V300A25 25 0 0 1 275 300V160.25L242.7500000000001 192.75A25 25 0 0 1 207.25 157.25L282.25 82.25A25 25 0 0 1 300 75A25 25 0 0 1 317.25 82L392.25 154.5A25 25 0 1 1 357.75 190.5z" />
    <glyph glyph-name="cloud-download-outline"
      unicode="&#xEA7E;"
      horiz-adv-x="600" d="M357.75 190.5L325 159V300A25 25 0 0 1 275 300V160.25L242.7500000000001 192.75A25 25 0 0 1 207.25 157.25L282.25 82.25A25 25 0 0 1 300 75A25 25 0 0 1 317.25 82L392.25 154.5A25 25 0 1 1 357.75 190.5zM441.7500000000001 425A150 150 0 0 1 158.25 425A125 125 0 0 1 81.25 218.25A25 25 0 1 1 118.75 250A75 75 0 0 0 175 375H177.5A25 25 0 0 1 202.5 395A100 100 0 0 0 398.5 395A25 25 0 0 1 423.5 375H425A75 75 0 0 0 481.25 250A25 25 0 0 1 483.5 214.5A25 25 0 0 1 500 208.25A25 25 0 0 1 518.75 216.75A125 125 0 0 1 441.7500000000001 425z" />
    <glyph glyph-name="cloud-upload"
      unicode="&#xEA7F;"
      horiz-adv-x="600" d="M547.5 300C547.5 302.75 546 305.5 545.25 308.25A104.25 104.25 0 0 1 540.75 322.5C539.5 325.5 537.75 328.5 536.25 331.75S532.5 339.25 530.25 342.75S525 348 525 350S520 356.25 517.25 359.25S512 364.25 509.25 366.75L500 375L491 381A92 92 0 0 1 480 386.75L470.2499999999999 391.25A103.25 103.25 0 0 1 457.7499999999999 395A75 75 0 0 1 447.5 397.25L441.7500000000001 400A150 150 0 0 1 158.25 400L153.75 398.75A75 75 0 0 1 143.5 396.5A103.25 103.25 0 0 1 131 392.75L121.25 388.25A92 92 0 0 1 110.25 382.5L101.25 375L92 367.25C89.25 364.75 86.5 362.5 84 359.7499999999999S78.75 353.4999999999999 76.25 350.5S71.75 344.75 69.75 341.5S65.75 334.25 63.75 330.5S60.5 324.25 59.25 321.25A104.25 104.25 0 0 1 54.75 307C54.75 304.25 53 301.5 52.5 298.75A130.75 130.75 0 0 1 50 275A137.5 137.5 0 0 1 52.25 252.25C52.25 249.75 53.5 247.5 54 245A139.5 139.5 0 0 1 58.5 230.5L61.5 223.2500000000001A125 125 0 0 1 69 209.25L72.5 203.75A14.000000000000002 14.000000000000002 0 0 1 73.75 201.75L75 200A125 125 0 0 1 175 150H250V184.25A50 50 0 0 0 225 177.5000000000001A51.25 51.25 0 0 0 189 192.75A50 50 0 0 0 190.25 263.5L265.25 336.0000000000001A50 50 0 0 0 300 350A50 50 0 0 0 335.25 335.25L410.25 260.25A50 50 0 0 0 410.25 189.75A50 50 0 0 0 375 175A48.00000000000001 48.00000000000001 0 0 0 350 181.75V150H425A125 125 0 0 1 525 200L526.25 201.25A14.000000000000002 14.000000000000002 0 0 1 527.5 203.25L531 208.7500000000001A125 125 0 0 1 538.5000000000001 222.7500000000001L541.5000000000001 230A139.5 139.5 0 0 1 546.0000000000001 244.5C546.0000000000001 247 547.2500000000001 249.25 547.7500000000001 251.75A137.5 137.5 0 0 1 550 275A130.75 130.75 0 0 1 547.5 300zM317.75 317.75A25 25 0 0 1 282.75 317.75L207.75 245.25A25 25 0 1 1 242.2500000000001 209.25L275 241V100A25 25 0 0 1 325 100V239.75L357.25 207.25A25 25 0 0 1 392.75 207.25A25 25 0 0 1 392.75 242.75z" />
    <glyph glyph-name="cloud-upload-outline"
      unicode="&#xEA80;"
      horiz-adv-x="600" d="M317.75 317.75A25 25 0 0 1 282.75 317.75L207.75 245.25A25 25 0 1 1 242.2500000000001 209.25L275 241V100A25 25 0 0 1 325 100V239.75L357.25 207.25A25 25 0 0 1 392.75 207.25A25 25 0 0 1 392.75 242.75zM441.7500000000001 425A150 150 0 0 1 158.25 425A125 125 0 0 1 81.25 218.25A25 25 0 1 1 118.75 250A75 75 0 0 0 175 375H177.5A25 25 0 0 1 202.5 395A100 100 0 0 0 398.5 395A25 25 0 0 1 423.5 375H425A75 75 0 0 0 481.25 250A25 25 0 0 1 483.5 214.5A25 25 0 0 1 500 208.25A25 25 0 0 1 518.75 216.75A125 125 0 0 1 441.7500000000001 425z" />
    <glyph glyph-name="code"
      unicode="&#xEA81;"
      horiz-adv-x="600" d="M216 469.25A25 25 0 0 1 180.75 466L55.75 316A25 25 0 0 1 55.75 284.25L176.5 134.25A25 25 0 0 1 196 125A25 25 0 0 1 215.5 165.75L107.25 300L219.25 434A25 25 0 0 1 216 469.25zM544.5 315.75L425 465.75A25 25 0 0 1 389.75 469.5A25 25 0 0 1 386 434.25L492.75 300L380.75 165.75A25 25 0 0 1 384.0000000000001 130.5A25 25 0 0 1 400 125A25 25 0 0 1 419.25 134L544.25 284A25 25 0 0 1 544.5 315.75z" />
    <glyph glyph-name="code-download"
      unicode="&#xEA82;"
      horiz-adv-x="600" d="M107.25 300L219.25 434A25 25 0 1 1 180.75 466L55.75 316A25 25 0 0 1 55.75 284.25L176.5 134.25A25 25 0 0 1 196 125A25 25 0 0 1 215.5 165.75zM544.5 315.75L425 465.75A25 25 0 0 1 386 434.25L492.75 300L380.75 165.75A25 25 0 0 1 384.0000000000001 130.5A25 25 0 0 1 400 125A25 25 0 0 1 419.25 134L544.25 284A25 25 0 0 1 544.5 315.75zM393 314.75A25 25 0 0 1 357.75 314.75L325 284V400A25 25 0 0 1 275 400V285.25L242.7500000000001 317.75A25 25 0 0 1 207.25 282.25L282.25 207.25A25 25 0 0 1 300 200A25 25 0 0 1 317.25 207L392.25 279.5A25 25 0 0 1 393 314.75z" />
    <glyph glyph-name="code-download-outline"
      unicode="&#xEA83;"
      horiz-adv-x="600" d="M107.25 300L219.25 434A25 25 0 1 1 180.75 466L55.75 316A25 25 0 0 1 55.75 284.25L176.5 134.25A25 25 0 0 1 196 125A25 25 0 0 1 215.5 165.75zM544.5 315.75L425 465.75A25 25 0 0 1 386 434.25L492.75 300L380.75 165.75A25 25 0 0 1 384.0000000000001 130.5A25 25 0 0 1 400 125A25 25 0 0 1 419.25 134L544.25 284A25 25 0 0 1 544.5 315.75zM393 314.75A25 25 0 0 1 357.75 314.75L325 284V400A25 25 0 0 1 275 400V285.25L242.7500000000001 317.75A25 25 0 0 1 207.25 282.25L282.25 207.25A25 25 0 0 1 300 200A25 25 0 0 1 317.25 207L392.25 279.5A25 25 0 0 1 393 314.75z" />
    <glyph glyph-name="code-outline"
      unicode="&#xEA84;"
      horiz-adv-x="600" d="M216 469.25A25 25 0 0 1 180.75 466L55.75 316A25 25 0 0 1 55.75 284.25L176.5 134.25A25 25 0 0 1 196 125A25 25 0 0 1 215.5 165.75L107.25 300L219.25 434A25 25 0 0 1 216 469.25zM544.5 315.75L425 465.75A25 25 0 0 1 389.75 469.5A25 25 0 0 1 386 434.25L492.75 300L380.75 165.75A25 25 0 0 1 384.0000000000001 130.5A25 25 0 0 1 400 125A25 25 0 0 1 419.25 134L544.25 284A25 25 0 0 1 544.5 315.75z" />
    <glyph glyph-name="collapse"
      unicode="&#xEA85;"
      horiz-adv-x="600" d="M475 375H410.5000000000001L492.75 457.25A25 25 0 1 1 457.25 492.75L375 410.75V475A25 25 0 0 1 350 500A25 25 0 0 1 325 475V350A25 25 0 0 1 350 325H475A25 25 0 0 1 475 375zM250 275H125A25 25 0 0 1 125 225H189.25L107.25 142.75A25 25 0 0 1 107.25 107.25A25 25 0 0 1 142.75 107.25L225 189.5V125A25 25 0 0 1 250 100A25 25 0 0 1 275 125V250A25 25 0 0 1 250 275z" />
    <glyph glyph-name="collapse-outline"
      unicode="&#xEA86;"
      horiz-adv-x="600" d="M475 375H410.5000000000001L492.75 457.25A25 25 0 1 1 457.25 492.75L375 410.75V475A25 25 0 0 1 350 500A25 25 0 0 1 325 475V350A25 25 0 0 1 350 325H475A25 25 0 0 1 475 375zM250 275H125A25 25 0 0 1 125 225H189.25L107.25 142.75A25 25 0 0 1 107.25 107.25A25 25 0 0 1 142.75 107.25L225 189.5V125A25 25 0 0 1 250 100A25 25 0 0 1 275 125V250A25 25 0 0 1 250 275z" />
    <glyph glyph-name="color-palette"
      unicode="&#xEA87;"
      horiz-adv-x="600" d="M488.5 473A265.25 265.25 0 0 1 297.75 550A250 250 0 0 1 296.5 50A64.5 64.5 0 0 1 359.75 97.25A63.00000000000001 63.00000000000001 0 0 1 345.5 154.2500000000001A12.5 12.5 0 0 0 354.75 175H396A153.75000000000003 153.75000000000003 0 0 1 550 316.75A212 212 0 0 1 488.5 473zM171 231.5A37.5 37.5 0 1 0 181 283.5A37.25 37.25 0 0 0 171 231.5zM207.5 368.75A37.5 37.5 0 1 0 193.75 418.75A37.5 37.5 0 0 0 207.5 368.75zM275 425A37.5 37.5 0 1 0 312.5 462.5A37.5 37.5 0 0 0 275 425zM418.75 405A37.5 37.5 0 1 0 432.5 455A37.5 37.5 0 0 0 418.75 405z" />
    <glyph glyph-name="color-palette-outline"
      unicode="&#xEA88;"
      horiz-adv-x="600" d="M488.5 473A265.25 265.25 0 0 1 297.75 550A250 250 0 0 1 296.5 50A64.5 64.5 0 0 1 359.75 97.25A63.00000000000001 63.00000000000001 0 0 1 345.5 154.2500000000001A12.5 12.5 0 0 0 354.75 175H396A153.75000000000003 153.75000000000003 0 0 1 550 316.75A212 212 0 0 1 488.5 473zM397 225H355.75A62.25000000000001 62.25000000000001 0 0 1 309 121.2500000000001A12.25 12.25 0 0 0 312 109.0000000000001C310.75 103.7500000000001 305 100.5000000000001 297.25 100.0000000000001A200 200 0 0 0 101.75 327.7500000000001A202.49999999999997 202.49999999999997 0 0 0 298 500H300A211.75 211.75 0 0 0 452.5000000000001 438A162.5 162.5 0 0 0 500 318.75A104.25 104.25 0 0 0 397 225zM262.5 437.5A37.5 37.5 0 0 1 337.5 437.5A37.5 37.5 0 0 1 262.5 437.5M381.25 420A37.5 37.5 0 1 1 432.5 406.25A37.5 37.5 0 0 1 381.25 420zM218.75 420A37.5 37.5 0 1 1 232.5000000000001 368.75A37.5 37.5 0 0 1 218.75 420zM154 318.5A37.5 37.5 0 1 1 206 308.5A37.25 37.25 0 0 1 154 318.5z" />
    <glyph glyph-name="color-picker"
      unicode="&#xEA89;"
      horiz-adv-x="600" d="M484.9999999999999 416.5L416.5 485A48.00000000000001 48.00000000000001 0 0 1 350 486.75L300 436.75L267.75 467.75A25 25 0 0 1 232.2500000000001 432.25L263.25 400L125 261.75A50 50 0 0 1 110.75 231.5000000000001L100 127.25A25 25 0 0 1 107.25 107.25A25 25 0 0 1 125 100H127.25L231.5 109.5A50 50 0 0 1 261.75 123.75L401.25 263.25L432.2499999999999 232.25A25 25 0 0 1 467.7499999999998 232.25A25 25 0 0 1 467.7499999999998 267.75L436.7499999999999 298.75L486.7499999999999 348.75A48.00000000000001 48.00000000000001 0 0 1 484.9999999999999 416.5zM160 226.5L300 366L367.25 298.5000000000001L297.5 228.7500000000001" />
    <glyph glyph-name="color-picker-outline"
      unicode="&#xEA8A;"
      horiz-adv-x="600" d="M484.9999999999999 416.5L416.5 485A48.00000000000001 48.00000000000001 0 0 1 350 486.75L300 436.75L267.75 467.75A25 25 0 0 1 232.2500000000001 432.25L263.25 400L125 261.75A50 50 0 0 1 110.75 231.5000000000001L100 127.25A25 25 0 0 1 107.25 107.25A25 25 0 0 1 125 100H127.25L231.5 109.5A50 50 0 0 1 261.75 123.75L401.25 263.25L432.2499999999999 232.25A25 25 0 0 1 467.7499999999998 232.25A25 25 0 0 1 467.7499999999998 267.75L436.7499999999999 298.75L486.7499999999999 348.75A48.00000000000001 48.00000000000001 0 0 1 484.9999999999999 416.5zM227 159.5L152 152.5L158.75 227.5L300 366L367.25 298.5000000000001zM402 334.5L334 400L381.75 450L450 381.75z" />
    <glyph glyph-name="compass"
      unicode="&#xEA8B;"
      horiz-adv-x="600" d="M270 269.75L312.25 286.75L330 330.25L287.75 313.25L270 269.75zM300 550A250 250 0 1 1 550 300A250 250 0 0 1 300 550zM398.25 364.5L354.5 258A25 25 0 0 0 340.75 244.25L235.5 201.75A25 25 0 0 0 225 200A25 25 0 0 0 207.25 207.75H206A25 25 0 0 0 201.5 232.75L245.25 339.25A25 25 0 0 0 259 353L364.25 395.5A25 25 0 0 0 391.75 389.25A25 25 0 0 0 398.25 364.5z" />
    <glyph glyph-name="compass-outline"
      unicode="&#xEA8C;"
      horiz-adv-x="600" d="M300 550A250 250 0 1 1 550 300A250 250 0 0 1 300 550zM300 100A200 200 0 1 0 500 300A200 200 0 0 0 300 100zM392 392A25 25 0 0 1 364.5 398.25L259.25 355.75A25 25 0 0 1 245.5 342L201.75 235.5A25 25 0 0 1 206.25 210.5H207.5A25 25 0 0 1 225 200A25 25 0 0 1 234.5000000000001 201.75L339.75 244.25A25 25 0 0 1 353.5 258L397.25 364.5A25 25 0 0 1 392 392zM270 269.75L287.7500000000001 313.25L330 330.25L312.2500000000001 286.75z" />
    <glyph glyph-name="copy"
      unicode="&#xEA8D;"
      horiz-adv-x="600" d="M450 375H375V458.25A67 67 0 0 1 308.25 525H141.75A67 67 0 0 1 75 458.25V291.75A67 67 0 0 1 141.75 225H225V150A75 75 0 0 1 300 75H450A75 75 0 0 1 525 150V300A75 75 0 0 1 450 375zM225 300V275H141.75A16.75 16.75 0 0 0 125 291.75V458.25A16.75 16.75 0 0 0 141.75 475H308.25A16.75 16.75 0 0 0 325 458.25V375H300A75 75 0 0 1 225 300z" />
    <glyph glyph-name="copy-outline"
      unicode="&#xEA8E;"
      horiz-adv-x="600" d="M450 75H300A75 75 0 0 0 225 150V300A75 75 0 0 0 300 375H450A75 75 0 0 0 525 300V150A75 75 0 0 0 450 75zM300 325A25 25 0 0 1 275 300V150A25 25 0 0 1 300 125H450A25 25 0 0 1 475 150V300A25 25 0 0 1 450 325zM243.25 225H141.75A67 67 0 0 0 75 291.75V458.25A67 67 0 0 0 141.75 525H308.25A67 67 0 0 0 375 458.25V365H325V458.25A16.75 16.75 0 0 1 308.25 475H141.75A16.75 16.75 0 0 1 125 458.25V291.75A16.75 16.75 0 0 1 141.75 275H243.25z" />
    <glyph glyph-name="corner-down-left"
      unicode="&#xEA8F;"
      horiz-adv-x="600" d="M497.9253112033194 450.6224066390042A24.896265560165975 24.896265560165975 0 0 1 473.0290456431535 475.5186721991702A24.896265560165975 24.896265560165975 0 0 1 448.1327800829875 450.6224066390042V326.1410788381743A24.896265560165975 24.896265560165975 0 0 0 440.9128630705394 308.4647302904565A24.896265560165975 24.896265560165975 0 0 0 423.2365145228215 301.2448132780084H201.1618257261411L268.1327800829875 385.643153526971A24.896265560165975 24.896265560165975 0 0 1 230.2904564315353 414.7717842323652L130.7053941908714 290.2904564315354A24.896265560165975 24.896265560165975 0 0 1 130.7053941908714 259.1701244813279L230.2904564315353 134.6887966804981A24.896265560165975 24.896265560165975 0 0 1 249.7095435684647 125.4771784232366A24.896265560165975 24.896265560165975 0 0 1 265.1452282157676 130.9543568464731A24.896265560165975 24.896265560165975 0 0 1 268.8796680497925 166.0580912863071L202.655601659751 249.7095435684648H424.7302904564315A74.68879668049792 74.68879668049792 0 0 1 499.4190871369294 324.3983402489627z" />
    <glyph glyph-name="corner-down-left-outline"
      unicode="&#xEA90;"
      horiz-adv-x="600" d="M497.9253112033194 450.6224066390042A24.896265560165975 24.896265560165975 0 0 1 473.0290456431535 475.5186721991702A24.896265560165975 24.896265560165975 0 0 1 448.1327800829875 450.6224066390042V326.1410788381743A24.896265560165975 24.896265560165975 0 0 0 440.9128630705394 308.4647302904565A24.896265560165975 24.896265560165975 0 0 0 423.2365145228215 301.2448132780084H201.1618257261411L268.1327800829875 385.643153526971A24.896265560165975 24.896265560165975 0 0 1 230.2904564315353 414.7717842323652L130.7053941908714 290.2904564315354A24.896265560165975 24.896265560165975 0 0 1 130.7053941908714 259.1701244813279L230.2904564315353 134.6887966804981A24.896265560165975 24.896265560165975 0 0 1 249.7095435684647 125.4771784232366A24.896265560165975 24.896265560165975 0 0 1 265.1452282157676 130.9543568464731A24.896265560165975 24.896265560165975 0 0 1 268.8796680497925 166.0580912863071L202.655601659751 249.7095435684648H424.7302904564315A74.68879668049792 74.68879668049792 0 0 1 499.4190871369294 324.3983402489627z" />
    <glyph glyph-name="corner-down-right"
      unicode="&#xEA91;"
      horiz-adv-x="600" d="M494.5 290.5L394.5 415.5A25 25 0 0 1 355.5 384.5L423.0000000000001 300H200A25 25 0 0 0 175 325V450A25 25 0 0 1 125 450V325A75 75 0 0 1 200 250H423.0000000000001L355.5000000000001 165.5A25 25 0 0 1 359.5000000000001 130.5000000000001A25 25 0 0 1 375 125A25 25 0 0 1 394.5 134.5L494.5 259.5A25 25 0 0 1 494.5 290.5z" />
    <glyph glyph-name="corner-down-right-outline"
      unicode="&#xEA92;"
      horiz-adv-x="600" d="M494.5 290.5L394.5 415.5A25 25 0 0 1 355.5 384.5L423.0000000000001 300H200A25 25 0 0 0 175 325V450A25 25 0 0 1 125 450V325A75 75 0 0 1 200 250H423.0000000000001L355.5000000000001 165.5A25 25 0 0 1 359.5000000000001 130.5000000000001A25 25 0 0 1 375 125A25 25 0 0 1 394.5 134.5L494.5 259.5A25 25 0 0 1 494.5 290.5z" />
    <glyph glyph-name="corner-left-down"
      unicode="&#xEA93;"
      horiz-adv-x="600" d="M450 475H325A75 75 0 0 1 250 400V177L165.5 244.5A25 25 0 0 1 134.5 205.5L259.5 105.5A25 25 0 0 1 290.5 105.5L415.5 205.5A25 25 0 1 1 384.5 244.5L300 177V400A25 25 0 0 0 325 425H450A25 25 0 0 1 450 475z" />
    <glyph glyph-name="corner-left-down-outline"
      unicode="&#xEA94;"
      horiz-adv-x="600" d="M450 475H325A75 75 0 0 1 250 400V177L165.5 244.5A25 25 0 0 1 134.5 205.5L259.5 105.5A25 25 0 0 1 290.5 105.5L415.5 205.5A25 25 0 1 1 384.5 244.5L300 177V400A25 25 0 0 0 325 425H450A25 25 0 0 1 450 475z" />
    <glyph glyph-name="corner-left-up"
      unicode="&#xEA95;"
      horiz-adv-x="600" d="M450 175H325A25 25 0 0 0 300 200V423L384.5 355.5A25 25 0 0 1 400 350A25 25 0 0 1 419.5 359.5A25 25 0 0 1 415.5 394.5L290.5 494.5A25 25 0 0 1 259.5 494.5L134.5 394.5A25 25 0 0 1 165.5 355.5L250 423V200A75 75 0 0 1 325 125H450A25 25 0 0 1 450 175z" />
    <glyph glyph-name="corner-left-up-outline"
      unicode="&#xEA96;"
      horiz-adv-x="600" d="M450 175H325A25 25 0 0 0 300 200V423L384.5 355.5A25 25 0 0 1 400 350A25 25 0 0 1 419.5 359.5A25 25 0 0 1 415.5 394.5L290.5 494.5A25 25 0 0 1 259.5 494.5L134.5 394.5A25 25 0 0 1 165.5 355.5L250 423V200A75 75 0 0 1 325 125H450A25 25 0 0 1 450 175z" />
    <glyph glyph-name="corner-right-down"
      unicode="&#xEA97;"
      horiz-adv-x="600" d="M469.5 240.5A25 25 0 0 1 434.5000000000001 244.5L350 177V400A75 75 0 0 1 275 475H150A25 25 0 0 1 150 425H275A25 25 0 0 0 300 400V177L215.5 244.5A25 25 0 0 1 184.5 205.5L309.5 105.5A25 25 0 0 1 340.5 105.5L465.5 205.5A25 25 0 0 1 469.5 240.5z" />
    <glyph glyph-name="corner-right-down-outline"
      unicode="&#xEA98;"
      horiz-adv-x="600" d="M469.5 240.5A25 25 0 0 1 434.5000000000001 244.5L350 177V400A75 75 0 0 1 275 475H150A25 25 0 0 1 150 425H275A25 25 0 0 0 300 400V177L215.5 244.5A25 25 0 0 1 184.5 205.5L309.5 105.5A25 25 0 0 1 340.5 105.5L465.5 205.5A25 25 0 0 1 469.5 240.5z" />
    <glyph glyph-name="corner-right-up"
      unicode="&#xEA99;"
      horiz-adv-x="600" d="M465.5 394.5L340.5 494.5A25 25 0 0 1 309.5 494.5L184.5 394.5A25 25 0 0 1 215.5 355.5L300 423V200A25 25 0 0 0 275 175H150A25 25 0 0 1 150 125H275A75 75 0 0 1 350 200V423L434.5 355.5A25 25 0 0 1 450 350A25 25 0 0 1 469.5 359.5A25 25 0 0 1 465.5 394.5z" />
    <glyph glyph-name="corner-right-up-outline"
      unicode="&#xEA9A;"
      horiz-adv-x="600" d="M465.5 394.5L340.5 494.5A25 25 0 0 1 309.5 494.5L184.5 394.5A25 25 0 0 1 215.5 355.5L300 423V200A25 25 0 0 0 275 175H150A25 25 0 0 1 150 125H275A75 75 0 0 1 350 200V423L434.5 355.5A25 25 0 0 1 450 350A25 25 0 0 1 469.5 359.5A25 25 0 0 1 465.5 394.5z" />
    <glyph glyph-name="corner-up-left"
      unicode="&#xEA9B;"
      horiz-adv-x="600" d="M400 350H177L244.5000000000001 434.5A25 25 0 1 1 205.5 465.5L105.5 340.5A25 25 0 0 1 105.5 309.5L205.5 184.5000000000001A25 25 0 0 1 225 175A25 25 0 0 1 240.5 180.5A25 25 0 0 1 244.5 215.5L177 300H400A25 25 0 0 0 425 275V150A25 25 0 0 1 475 150V275A75 75 0 0 1 400 350z" />
    <glyph glyph-name="corner-up-left-outline"
      unicode="&#xEA9C;"
      horiz-adv-x="600" d="M400 350H177L244.5000000000001 434.5A25 25 0 1 1 205.5 465.5L105.5 340.5A25 25 0 0 1 105.5 309.5L205.5 184.5000000000001A25 25 0 0 1 225 175A25 25 0 0 1 240.5 180.5A25 25 0 0 1 244.5 215.5L177 300H400A25 25 0 0 0 425 275V150A25 25 0 0 1 475 150V275A75 75 0 0 1 400 350z" />
    <glyph glyph-name="corner-up-right"
      unicode="&#xEA9D;"
      horiz-adv-x="600" d="M494.5 340.5L394.5 465.5A25 25 0 0 1 355.5 434.5L423.0000000000001 350H200A75 75 0 0 1 125 275V150A25 25 0 0 1 175 150V275A25 25 0 0 0 200 300H423.0000000000001L355.5000000000001 215.5A25 25 0 0 1 359.5000000000001 180.5000000000001A25 25 0 0 1 375 175A25 25 0 0 1 394.5 184.5L494.5 309.5A25 25 0 0 1 494.5 340.5z" />
    <glyph glyph-name="corner-up-right-outline"
      unicode="&#xEA9E;"
      horiz-adv-x="600" d="M494.5 340.5L394.5 465.5A25 25 0 0 1 355.5 434.5L423.0000000000001 350H200A75 75 0 0 1 125 275V150A25 25 0 0 1 175 150V275A25 25 0 0 0 200 300H423.0000000000001L355.5000000000001 215.5A25 25 0 0 1 359.5000000000001 180.5000000000001A25 25 0 0 1 375 175A25 25 0 0 1 394.5 184.5L494.5 309.5A25 25 0 0 1 494.5 340.5z" />
    <glyph glyph-name="credit-card"
      unicode="&#xEA9F;"
      horiz-adv-x="600" d="M475 475H125A75 75 0 0 1 50 400V200A75 75 0 0 1 125 125H475A75 75 0 0 1 550 200V400A75 75 0 0 1 475 475zM275 225H175A25 25 0 0 0 175 275H275A25 25 0 0 0 275 225zM425 225H375A25 25 0 0 0 375 275H425A25 25 0 0 0 425 225zM500 375H100V400A25 25 0 0 0 125 425H475A25 25 0 0 0 500 400z" />
    <glyph glyph-name="credit-card-outline"
      unicode="&#xEAA0;"
      horiz-adv-x="600" d="M475 475H125A75 75 0 0 1 50 400V200A75 75 0 0 1 125 125H475A75 75 0 0 1 550 200V400A75 75 0 0 1 475 475zM100 400A25 25 0 0 0 125 425H475A25 25 0 0 0 500 400V375H100zM500 200A25 25 0 0 0 475 175H125A25 25 0 0 0 100 200V325H500zM175 225H275A25 25 0 0 1 275 275H175A25 25 0 0 1 175 225zM375 225H425A25 25 0 0 1 425 275H375A25 25 0 0 1 375 225z" />
    <glyph glyph-name="crop"
      unicode="&#xEAA1;"
      horiz-adv-x="600" d="M525 200H450V386A64 64 0 0 1 386 450H200V525A25 25 0 0 1 150 525V450H75A25 25 0 0 1 75 400H150V214A64 64 0 0 1 214 150H400V75A25 25 0 0 1 450 75V150H525A25 25 0 0 1 525 200zM214 200A14.000000000000002 14.000000000000002 0 0 0 200 214V400H386.0000000000001A14.000000000000002 14.000000000000002 0 0 0 400 386V200z" />
    <glyph glyph-name="crop-outline"
      unicode="&#xEAA2;"
      horiz-adv-x="600" d="M525 200H450V386A64 64 0 0 1 386 450H200V525A25 25 0 0 1 150 525V450H75A25 25 0 0 1 75 400H150V214A64 64 0 0 1 214 150H400V75A25 25 0 0 1 450 75V150H525A25 25 0 0 1 525 200zM214 200A14.000000000000002 14.000000000000002 0 0 0 200 214V400H386.0000000000001A14.000000000000002 14.000000000000002 0 0 0 400 386V200z" />
    <glyph glyph-name="cube"
      unicode="&#xEAA3;"
      horiz-adv-x="600" d="M281.25 304.25L75 391V197.75A42.24999999999999 42.24999999999999 0 0 1 100 159.75L279.75 75H281.25zM300 337.5L512.75 426.75A40.5 40.5 0 0 1 499.9999999999999 436.25L320 520.5A46.75 46.75 0 0 1 280 520.5L100 436.25A40.5 40.5 0 0 1 87.25 426.75zM318.75 304.25V75H320L500 159.75A42.24999999999999 42.24999999999999 0 0 1 525 197.5000000000001V391z" />
    <glyph glyph-name="cube-outline"
      unicode="&#xEAA4;"
      horiz-adv-x="600" d="M516.5 418.5C516.5 420.25 514 422 512.75 423.75L510.5000000000001 426.25A62.5 62.5 0 0 1 489.0000000000001 443.25L329.0000000000001 518.25A67.50000000000001 67.50000000000001 0 0 1 272.5000000000001 518.25L112.5 443.25A65 65 0 0 1 91 426.25L88 425A25 25 0 0 1 84.25 420A59.75 59.75 0 0 1 75 388.5V212A62.25000000000001 62.25000000000001 0 0 1 111.5 155.5L271.5 80.5A67.50000000000001 67.50000000000001 0 0 1 328.25 80.5L488.25 155.5A62.25000000000001 62.25000000000001 0 0 1 525 211.5V388.5A59.75 59.75 0 0 1 516.5 418.5zM292.75 473.5A18.249999999999996 18.249999999999996 0 0 0 307.25 473.5L440.5 411.5L300 346.25L159.5 411.5zM132.5 200A11.749999999999998 11.749999999999998 0 0 0 125 210.75V372.5L275 302.75V134.75zM467.2500000000001 200L325 134.75V302.75L475 372.5V211.5A12.000000000000002 12.000000000000002 0 0 0 467.2500000000001 199.9999999999999z" />
    <glyph glyph-name="diagonal-arrow-left-down"
      unicode="&#xEAA5;"
      horiz-adv-x="600" d="M442.75 442.75A25 25 0 0 1 407.25 442.75L200 235.25V375A25 25 0 0 1 150 375V175A25 25 0 0 1 175 150H375A25 25 0 0 1 375 200H235.25L442.75 407.25A25 25 0 0 1 442.75 442.75z" />
    <glyph glyph-name="diagonal-arrow-left-down-outline"
      unicode="&#xEAA6;"
      horiz-adv-x="600" d="M442.75 442.75A25 25 0 0 1 407.25 442.75L200 235.25V375A25 25 0 0 1 150 375V175A25 25 0 0 1 175 150H375A25 25 0 0 1 375 200H235.25L442.75 407.25A25 25 0 0 1 442.75 442.75z" />
    <glyph glyph-name="diagonal-arrow-left-up"
      unicode="&#xEAA7;"
      horiz-adv-x="600" d="M442.75 192.75L235.5 400H375A25 25 0 0 1 375 450H176.25A25 25 0 0 1 151.25 425V225A25 25 0 0 1 176.25 200H175A25 25 0 0 1 200 225V363.75L406.5 157.25A25 25 0 0 1 442 157.25A25 25 0 0 1 442.75 192.75z" />
    <glyph glyph-name="diagonal-arrow-left-up-outline"
      unicode="&#xEAA8;"
      horiz-adv-x="600" d="M442.75 192.75L235.5 400H375A25 25 0 0 1 375 450H176.25A25 25 0 0 1 151.25 425V225A25 25 0 0 1 176.25 200H175A25 25 0 0 1 200 225V363.75L406.5 157.25A25 25 0 0 1 442 157.25A25 25 0 0 1 442.75 192.75z" />
    <glyph glyph-name="diagonal-arrow-right-down"
      unicode="&#xEAA9;"
      horiz-adv-x="600" d="M425 400A25 25 0 0 1 400 375V235.25L192.75 442.75A25 25 0 0 1 157.25 407.25L364.7500000000001 200.0000000000001H225A25 25 0 0 1 225 150H425A25 25 0 0 1 450 175V375A25 25 0 0 1 425 400z" />
    <glyph glyph-name="diagonal-arrow-right-down-outline"
      unicode="&#xEAAA;"
      horiz-adv-x="600" d="M425 400A25 25 0 0 1 400 375V235.25L192.75 442.75A25 25 0 0 1 157.25 407.25L364.7500000000001 200.0000000000001H225A25 25 0 0 1 225 150H425A25 25 0 0 1 450 175V375A25 25 0 0 1 425 400z" />
    <glyph glyph-name="diagonal-arrow-right-up"
      unicode="&#xEAAB;"
      horiz-adv-x="600" d="M450 423.75A25 25 0 0 1 425 448.75L225 450A25 25 0 0 1 225 400H364L157.25 192.75A25 25 0 0 1 157.25 157.25A25 25 0 0 1 192.75 157.25L400 364.5V225A25 25 0 0 1 425 200A25 25 0 0 1 450 225z" />
    <glyph glyph-name="diagonal-arrow-right-up-outline"
      unicode="&#xEAAC;"
      horiz-adv-x="600" d="M450 423.75A25 25 0 0 1 425 448.75L225 450A25 25 0 0 1 225 400H364L157.25 192.75A25 25 0 0 1 157.25 157.25A25 25 0 0 1 192.75 157.25L400 364.5V225A25 25 0 0 1 425 200A25 25 0 0 1 450 225z" />
    <glyph glyph-name="done-all"
      unicode="&#xEAAD;"
      horiz-adv-x="600" d="M415.5 444.75A25 25 0 0 1 380.25 440.5L205.25 215.5L119.5 320A25 25 0 1 1 80.5 288.75L184.75 159.25A25 25 0 0 1 204.25 150A25 25 0 0 1 225 159.5L420.75 409.5A25 25 0 0 1 415.5 444.75zM540.5 444.75A25 25 0 0 1 505.25 440.5L330.25 215.5L315.0000000000001 234.25L283.5000000000001 193.75L311.0000000000001 159.5A25 25 0 0 1 330.5 150.25A25 25 0 0 1 350 159.75L545.75 409.7499999999999A25 25 0 0 1 540.4999999999999 444.75zM217.75 273.5L250 314L245.0000000000001 320A25 25 0 0 1 209.25 325A25 25 0 0 1 205.5 289.75z" />
    <glyph glyph-name="done-all-outline"
      unicode="&#xEAAE;"
      horiz-adv-x="600" d="M415.5 444.75A25 25 0 0 1 380.25 440.5L205.25 215.5L119.5 320A25 25 0 1 1 80.5 288.75L184.75 159.25A25 25 0 0 1 204.25 150A25 25 0 0 1 225 159.5L420.75 409.5A25 25 0 0 1 415.5 444.75zM540.5 444.75A25 25 0 0 1 505.25 440.5L330.25 215.5L315.0000000000001 234.25L283.5000000000001 193.75L311.0000000000001 159.5A25 25 0 0 1 330.5 150.25A25 25 0 0 1 350 159.75L545.75 409.7499999999999A25 25 0 0 1 540.4999999999999 444.75zM217.75 273.5L250 314L245.0000000000001 320A25 25 0 0 1 209.25 325A25 25 0 0 1 205.5 289.75z" />
    <glyph glyph-name="download"
      unicode="&#xEAAF;"
      horiz-adv-x="600" d="M125 150H475A25 25 0 0 0 500 125V125A25 25 0 0 0 475 100H125A25 25 0 0 0 100 125V125A25 25 0 0 0 125 150zM100 125L100 175A25 25 0 0 0 125 200L125 200A25 25 0 0 0 150 175L150 125A25 25 0 0 0 125 100L125 100A25 25 0 0 0 100 125zM450 125L450 175A25 25 0 0 0 475 200L475 200A25 25 0 0 0 500 175L500 125A25 25 0 0 0 475 100L475 100A25 25 0 0 0 450 125zM300 225A25 25 0 0 0 285.5 229.5L185.5 300A25 25 0 0 0 179.5 334.75A25 25 0 0 0 214.5 340.75L300 281L385 345A25 25 0 0 0 415.0000000000001 305L315.0000000000001 230A25 25 0 0 0 300.0000000000001 225.0000000000001zM300 275A25 25 0 0 0 275 300V500A25 25 0 0 0 325 500V300A25 25 0 0 0 300 275z" />
    <glyph glyph-name="download-outline"
      unicode="&#xEAB0;"
      horiz-adv-x="600" d="M125 150H475A25 25 0 0 0 500 125V125A25 25 0 0 0 475 100H125A25 25 0 0 0 100 125V125A25 25 0 0 0 125 150zM100 125L100 175A25 25 0 0 0 125 200L125 200A25 25 0 0 0 150 175L150 125A25 25 0 0 0 125 100L125 100A25 25 0 0 0 100 125zM450 125L450 175A25 25 0 0 0 475 200L475 200A25 25 0 0 0 500 175L500 125A25 25 0 0 0 475 100L475 100A25 25 0 0 0 450 125zM300 225A25 25 0 0 0 285.5 229.5L185.5 300A25 25 0 0 0 179.5 334.75A25 25 0 0 0 214.5 340.75L300 281L385 345A25 25 0 0 0 415.0000000000001 305L315.0000000000001 230A25 25 0 0 0 300.0000000000001 225.0000000000001zM300 275A25 25 0 0 0 275 300V500A25 25 0 0 0 325 500V300A25 25 0 0 0 300 275z" />
    <glyph glyph-name="droplet"
      unicode="&#xEAB1;"
      horiz-adv-x="600" d="M297.5206611570248 76.8595041322313A183.4710743801653 183.4710743801653 0 0 0 166.6115702479339 133.3884297520661A191.6528925619835 191.6528925619835 0 0 0 169.0909090909091 400.4132231404958L284.1322314049587 515.702479338843A23.305785123966942 23.305785123966942 0 0 0 301.7355371900826 523.1404958677685A24.793388429752067 24.793388429752067 0 0 0 319.3388429752066 515.4545454545455L432.396694214876 398.4297520661157A191.6528925619835 191.6528925619835 0 0 0 430.1652892561983 131.404958677686A181.73553719008265 181.73553719008265 0 0 0 297.5206611570248 76.8595041322313z" />
    <glyph glyph-name="droplet-off"
      unicode="&#xEAB2;"
      horiz-adv-x="600" d="M475 196.5A193.25 193.25 0 0 1 433.5 400L319.5 517.25A25 25 0 0 1 301.75 525A25 25 0 0 1 283.75 517.5L218.5 452zM150 379.5A193.25 193.25 0 0 1 166 132A186 186 0 0 1 298 75A183.5 183.5 0 0 1 414 115.0000000000001zM517.75 117.75L117.75 517.75A25 25 0 0 1 82.25 482.25L482.25 82.25A25 25 0 0 1 517.75 82.25A25 25 0 0 1 517.75 117.75z" />
    <glyph glyph-name="droplet-off-outline"
      unicode="&#xEAB3;"
      horiz-adv-x="600" d="M300 125A135.00000000000003 135.00000000000003 0 0 0 203 166A143.25 143.25 0 0 0 185.75 343.75L150 379.5A193.50000000000003 193.50000000000003 0 0 1 167.5 131.0000000000001A184.25 184.25 0 0 1 300 75A184 184 0 0 1 414.5 114.75L378.75 150A135.75 135.75 0 0 0 300 125zM300 464.25L397 364.25A142.75 142.75 0 0 0 434.25 235.5L475 196.2500000000001A193 193 0 0 1 432.75 400L317.75 517.5A25 25 0 0 1 300 525A25 25 0 0 1 282 517.5L218.25 452.5L253.75 417zM517.75 117.75L117.75 517.75A25 25 0 0 1 82.25 482.25L482.25 82.25A25 25 0 0 1 517.75 82.25A25 25 0 0 1 517.75 117.75z" />
    <glyph glyph-name="droplet-outline"
      unicode="&#xEAB4;"
      horiz-adv-x="600" d="M297.5206611570248 76.8595041322313A183.4710743801653 183.4710743801653 0 0 0 166.6115702479339 133.3884297520661A191.6528925619835 191.6528925619835 0 0 0 169.0909090909091 400.4132231404958L284.1322314049587 515.702479338843A23.305785123966942 23.305785123966942 0 0 0 301.7355371900826 523.1404958677685A24.793388429752067 24.793388429752067 0 0 0 319.3388429752066 515.4545454545455L432.396694214876 398.4297520661157A191.6528925619835 191.6528925619835 0 0 0 430.1652892561983 131.404958677686A181.73553719008265 181.73553719008265 0 0 0 297.5206611570248 76.8595041322313zM300.7438016528926 462.8925619834711L204.2975206611571 365.702479338843A142.31404958677686 142.31404958677686 0 0 1 202.5619834710744 167.3553719008265A134.62809917355372 134.62809917355372 0 0 1 297.5206611570248 126.4462809917355A134.3801652892562 134.3801652892562 0 0 1 394.2148760330579 166.3636363636363A141.8181818181818 141.8181818181818 0 0 1 395.7024793388431 364.7107438016528z" />
    <glyph glyph-name="edit"
      unicode="&#xEAB5;"
      horiz-adv-x="600" d="M484.9999999999999 416.5L416.5 485A50 50 0 0 1 350 486.75L125 261.75A50 50 0 0 1 110.75 231.5L100 127.25A25 25 0 0 1 107.25 107.25A25 25 0 0 1 125 100H127.25L231.5 109.5A50 50 0 0 1 261.75 123.75L486.75 348.75A48.00000000000001 48.00000000000001 0 0 1 484.9999999999999 416.5zM400 333L333 400L381.75 450L450 381.75z" />
    <glyph glyph-name="edit-2"
      unicode="&#xEAB6;"
      horiz-adv-x="600" d="M475 100H125A25 25 0 0 1 125 50H475A25 25 0 0 1 475 100zM125 150H127.25L231.5 159.5A50 50 0 0 1 261.75 173.75L486.75 398.75A48.00000000000001 48.00000000000001 0 0 1 484.9999999999999 466.5L416.5 535A50 50 0 0 1 350 536.75L125 311.75A50 50 0 0 1 110.75 281.5000000000001L100 177.25A25 25 0 0 1 107.25 157.25A25 25 0 0 1 125 150zM381.75 500L450 431.75L400 383L333 450z" />
    <glyph glyph-name="edit-2-outline"
      unicode="&#xEAB7;"
      horiz-adv-x="600" d="M475 100H125A25 25 0 0 1 125 50H475A25 25 0 0 1 475 100zM125 150H127.25L231.5 159.5A50 50 0 0 1 261.75 173.75L486.75 398.75A48.00000000000001 48.00000000000001 0 0 1 484.9999999999999 466.5L416.5 535A50 50 0 0 1 350 536.75L125 311.75A50 50 0 0 1 110.75 281.5000000000001L100 177.25A25 25 0 0 1 107.25 157.25A25 25 0 0 1 125 150zM381.75 500L450 431.75L400 383L333 450zM159.25 277.25L300 417L367.5 349.5L227.5 209.5L152.5 202.5000000000001z" />
    <glyph glyph-name="edit-outline"
      unicode="&#xEAB8;"
      horiz-adv-x="600" d="M484.9999999999999 416.5L416.5 485A50 50 0 0 1 350 486.75L125 261.75A50 50 0 0 1 110.75 231.5L100 127.25A25 25 0 0 1 107.25 107.25A25 25 0 0 1 125 100H127.25L231.5 109.5A50 50 0 0 1 261.75 123.75L486.75 348.75A48.00000000000001 48.00000000000001 0 0 1 484.9999999999999 416.5zM227 159.5L152 152.5L158.75 227.5L300 367L367.5 299.5zM400 333L333 400L381.75 450L450 381.75z" />
    <glyph glyph-name="email"
      unicode="&#xEAB9;"
      horiz-adv-x="600" d="M475 500H125A75 75 0 0 1 50 425V175A75 75 0 0 1 125 100H475A75 75 0 0 1 550 175V425A75 75 0 0 1 475 500zM475 450L312.5 338.25A25 25 0 0 0 287.5 338.25L125 450z" />
    <glyph glyph-name="email-outline"
      unicode="&#xEABA;"
      horiz-adv-x="600" d="M475 500H125A75 75 0 0 1 50 425V175A75 75 0 0 1 125 100H475A75 75 0 0 1 550 175V425A75 75 0 0 1 475 500zM458.2499999999999 450L300 331.25L141.75 450zM475 150H125A25 25 0 0 0 100 175V418.75L285 280A25 25 0 0 1 300 275A25 25 0 0 1 315 280L500 418.75V175A25 25 0 0 0 475 150z" />
    <glyph glyph-name="expand"
      unicode="&#xEABB;"
      horiz-adv-x="600" d="M500 475A25 25 0 0 1 475 500H350A25 25 0 0 1 350 450H414.25L332.25 367.75A25 25 0 0 1 332.25 332.25A25 25 0 0 1 367.75 332.25L450 414.5V350A25 25 0 0 1 475 325A25 25 0 0 1 500 350zM267.75 267.75A25 25 0 0 1 232.2500000000001 267.75L150 185.75V250A25 25 0 0 1 125 275A25 25 0 0 1 100 250V125A25 25 0 0 1 125 100H250A25 25 0 0 1 250 150H185.5L267.75 232.25A25 25 0 0 1 267.75 267.75z" />
    <glyph glyph-name="expand-outline"
      unicode="&#xEABC;"
      horiz-adv-x="600" d="M500 475A25 25 0 0 1 475 500H350A25 25 0 0 1 350 450H414.25L332.25 367.75A25 25 0 0 1 332.25 332.25A25 25 0 0 1 367.75 332.25L450 414.5V350A25 25 0 0 1 475 325A25 25 0 0 1 500 350zM267.75 267.75A25 25 0 0 1 232.2500000000001 267.75L150 185.75V250A25 25 0 0 1 125 275A25 25 0 0 1 100 250V125A25 25 0 0 1 125 100H250A25 25 0 0 1 250 150H185.5L267.75 232.25A25 25 0 0 1 267.75 267.75z" />
    <glyph glyph-name="external-link"
      unicode="&#xEABD;"
      horiz-adv-x="600" d="M500 325A25 25 0 0 1 475 300V150A25 25 0 0 0 450 125H150A25 25 0 0 0 125 150V450A25 25 0 0 0 150 475H300A25 25 0 0 1 300 525H150A75 75 0 0 1 75 450V150A75 75 0 0 1 150 75H450A75 75 0 0 1 525 150V300A25 25 0 0 1 500 325zM400 475H439.5L282.25 318A25 25 0 0 1 282.25 282.5A25 25 0 0 1 317.75 282.5L475 439.5V400A25 25 0 0 1 500 375A25 25 0 0 1 525 400V500A25 25 0 0 1 500 525H400A25 25 0 0 1 400 475z" />
    <glyph glyph-name="external-link-outline"
      unicode="&#xEABE;"
      horiz-adv-x="600" d="M500 325A25 25 0 0 1 475 300V150A25 25 0 0 0 450 125H150A25 25 0 0 0 125 150V450A25 25 0 0 0 150 475H300A25 25 0 0 1 300 525H150A75 75 0 0 1 75 450V150A75 75 0 0 1 150 75H450A75 75 0 0 1 525 150V300A25 25 0 0 1 500 325zM400 475H439.5L282.25 318A25 25 0 0 1 282.25 282.5A25 25 0 0 1 317.75 282.5L475 439.5V400A25 25 0 0 1 500 375A25 25 0 0 1 525 400V500A25 25 0 0 1 500 525H400A25 25 0 0 1 400 475z" />
    <glyph glyph-name="eye"
      unicode="&#xEABF;"
      horiz-adv-x="600" d="M262.5 300A37.5 37.5 0 0 1 337.5 300A37.5 37.5 0 0 1 262.5 300M546.75 312.5C530.75 340.25 442.75 479.5 293.25 475C155 471.5 75 350 53.25 312.5A25 25 0 0 1 53.25 287.5C69 260.25 153.25 125 300.5000000000001 125H306.7500000000001C445 128.5 525.25 250 546.75 287.5A25 25 0 0 1 546.75 312.5zM300.0000000000001 212.5A87.5 87.5 0 1 0 387.5000000000001 300A87.5 87.5 0 0 0 300.0000000000001 212.5z" />
    <glyph glyph-name="eye-off"
      unicode="&#xEAC0;"
      horiz-adv-x="600" d="M262.5 300A37.5 37.5 0 0 1 337.5 300A37.5 37.5 0 0 1 262.5 300M382.25 147L350 180.5L348.25 182.25L316.5 214A101.75000000000001 101.75000000000001 0 0 0 301.25 212.5A87.5 87.5 0 0 0 212.5 300A101.75000000000001 101.75000000000001 0 0 0 214 315.25L164 365.25L125 403.25A397.25 397.25 0 0 1 53.25 312.5A25 25 0 0 1 53.25 287.5C69 260.25 153.25 125 300.5 125H306.75A237 237 0 0 1 387.5 141.7500000000001zM214.75 456L284.75 386A101.75000000000001 101.75000000000001 0 0 0 300 387.5A87.5 87.5 0 0 0 387.5 300A101.75000000000001 101.75000000000001 0 0 0 386 284.75L453 217.75L474 196.75A397.25 397.25 0 0 1 546.75 287.5A25 25 0 0 1 546.75 312.5C530.75 340.25 442.75 479.5 293.25 475A237 237 0 0 1 212.5 458.25zM517.75 117.75L485.25 150L435.25 200L197.25 438.25L160.5 475L117.75 517.75A25 25 0 0 1 82.25 482.25L138.25 425L182 382.5L364.75 200L366.5 198.25L400 164.75L414.75 150L482.25 82.25A25 25 0 0 1 517.75 82.25A25 25 0 0 1 517.75 117.75z" />
    <glyph glyph-name="eye-off-2"
      unicode="&#xEAC1;"
      horiz-adv-x="600" d="M445.25 265.25A223.25 223.25 0 0 1 525 409.5A25 25 0 1 1 475 415.5A176.75 176.75 0 0 0 125 415.5A25 25 0 1 1 75 409.5A223.25 223.25 0 0 1 154.5 265.25L97 207.25A25 25 0 0 1 132.25 172L197.5 237A226.5 226.5 0 0 1 275 214V125A25 25 0 0 1 325 125V214A226.5 226.5 0 0 1 402.5000000000001 237L467.75 172A25 25 0 0 1 503 207.25z" />
    </font>
</defs>
</svg>
